Tvoj účet nieje VIP.
Preto sú tvoje funkcie a možnosti značne obmedzené.
Pre aktiváciu VIP klikni sem.

The Old Man / Starej chlap (S01)(720p)(AVC)(WebDl)(Multi 8 lang)(MultiSUB) = CSFD 68% | SkTorrent.eu

Cz-SkTorrent open Tracker, na volné zdielanie súborov. Pridajte sa k nasej komunite a získajte pristup k tisícom torrentov.

  • vysoká rýchlost
  • úplne zdarma
  • prevazne Slovenska a Ceska scena
  • ste tu s nami uz 5 rokov - Dakujeme
  • Vitaj Guest (Login) Ako stahovat
    torrenty?
    Torrenty:
    v1 textová
    v2 obrázková
    Ako sa stat
    Uploaderom
    Online
    Filmy
    Forum
    Pravidlá
    BitTorrent
    klient
    Meno: Heslo:
    Zaregistrovat
    Po zaregistrovaní mozte volne stahovat
    Zabudol som heslo

    The Old Man / Starej chlap (S01)(720p)(AVC)(WebDl)(Multi 8 lang)(MultiSUB) = CSFD 68% Názov:The Old Man / Starej chlap (S01)(720p)(AVC)(WebDl)(Multi 8 lang)(MultiSUB) = CSFD 68% Hodnocení:N/A Stiahnut
    Pozriet Online
    Kategória:Seriál Velikost:11.7 GB BitTorrent klient
    Pridaný: Súbory:
    Skontrolován:2022-11-20 Peerov:15 (Seed: 14, Leech: 1)
    Zaner:Akcni,Drama,Thriller Uploader:Uvidis, az ked budes
    VIP
    Kúp nám Pivo 1,10€

    Kúp nám Pivo
    Pridaj do zalozky
    Pridaj do zalozky





    [center]






    Movie Name: The Old Man (S01)
    IMDb Rating: 7.7/10

    Quality: 720p (WebDL)
    Language: AAC 2.0 - English , German , Spanish, Italian , Portuguese , French , Hungarian , Polish , Turkish ,
    Subtitles: Multi 32+
    Director: Jon Watts, Jet Wilkinson, Greg Yaitanes, Zetna Fuentes
    Writers: Jonathan E. Steinberg, Robert Levine
    Genres: Action | Drama | Thiller |


    A retired CIA agent is hunted by both the agency he once worked for and his own nightmares, when an unknown man suddenly visits him after nearly three decades.





    [/center]
    Format                                   : MPEG-4
    Format profile                           : Base Media
    Codec ID                                 : isom (isom/iso2/avc1/mp41)
    File size                                : 1.32 GiB
    Duration                                 : 1 h 1 min
    Overall bit rate mode                    : Variable
    Overall bit rate                         : 3 085 kb/s
    Collection                               : Starej chlap
    Season                                   : 1
    Track name                               : I
    Performer                                : Jeff Bridges,John Lithgow,Amy Brenneman,Alia Shawkat,E.J. Bonilla,Gbenga Akinnagbe
    Description                              : Když Dana Chase dostihne jeho minulost, musí uprchnout z města, které celých třicet let nazýval svým domovem.
    Recorded date                            : 2022
    Writing application                      : Lavf58.76.100
    Cover                                    : Yes

    Video
    ID                                       : 1
    Format                                   : AVC
    Format/Info                              : Advanced Video Codec
    Format profile                           : High@L3.1
    Format settings                          : CABAC / 4 Ref Frames
    Format settings, CABAC                   : Yes
    Format settings, Reference frames        : 4 frames
    Codec ID                                 : avc1
    Codec ID/Info                            : Advanced Video Coding
    Duration                                 : 1 h 1 min
    Bit rate mode                            : Variable
    Bit rate                                 : 2 041 kb/s
    Maximum bit rate                         : 6 375 kb/s
    Width                                    : 1 280 pixels
    Height                                   : 720 pixels
    Display aspect ratio                     : 16:9
    Frame rate mode                          : Constant
    Frame rate                               : 23.976 (24000/1001) FPS
    Color space                              : YUV
    Chroma subsampling                       : 4:2:0
    Bit depth                                : 8 bits
    Scan type                                : Progressive
    Bits/(Pixel*Frame)                       : 0.092
    Stream size                              : 895 MiB (66%)
    Title                                    : BAMTech video
    Color range                              : Limited
    Color primaries                          : BT.709
    Transfer characteristics                 : BT.709
    Matrix coefficients                      : BT.709
    Codec configuration box                  : avcC

    Audio #1
    ID                                       : 3
    Format                                   : AAC LC
    Format/Info                              : Advanced Audio Codec Low Complexity
    Codec ID                                 : mp4a-40-2
    Duration                                 : 1 h 1 min
    Bit rate mode                            : Constant
    Bit rate                                 : 125 kb/s
    Channel(s)                               : 2 channels
    Channel layout                           : L R
    Sampling rate                            : 48.0 kHz
    Frame rate                               : 46.875 FPS (1024 SPF)
    Compression mode                         : Lossy
    Stream size                              : 54.9 MiB (4%)
    Title                                    : BAMTech audio / Deutsch
    Language                                 : German
    Default                                  : Yes
    Alternate group                          : 2

    Audio #2
    ID                                       : 4
    Format                                   : AAC LC
    Format/Info                              : Advanced Audio Codec Low Complexity
    Codec ID                                 : mp4a-40-2
    Duration                                 : 1 h 1 min
    Bit rate mode                            : Constant
    Bit rate                                 : 125 kb/s
    Channel(s)                               : 2 channels
    Channel layout                           : L R
    Sampling rate                            : 48.0 kHz
    Frame rate                               : 46.875 FPS (1024 SPF)
    Compression mode                         : Lossy
    Stream size                              : 54.9 MiB (4%)
    Title                                    : BAMTech audio / English
    Language                                 : English
    Default                                  : Yes
    Alternate group                          : 3

    Audio #3
    ID                                       : 5
    Format                                   : AAC LC
    Format/Info                              : Advanced Audio Codec Low Complexity
    Codec ID                                 : mp4a-40-2
    Duration                                 : 1 h 1 min
    Bit rate mode                            : Constant
    Bit rate                                 : 125 kb/s
    Channel(s)                               : 2 channels
    Channel layout                           : L R
    Sampling rate                            : 48.0 kHz
    Frame rate                               : 46.875 FPS (1024 SPF)
    Compression mode                         : Lossy
    Stream size                              : 54.9 MiB (4%)
    Title                                    : BAMTech audio / Español
    Language                                 : Spanish
    Default                                  : Yes
    Alternate group                          : 4

    Audio #4
    ID                                       : 6
    Format                                   : AAC LC
    Format/Info                              : Advanced Audio Codec Low Complexity
    Codec ID                                 : mp4a-40-2
    Duration                                 : 1 h 1 min
    Bit rate mode                            : Constant
    Bit rate                                 : 125 kb/s
    Channel(s)                               : 2 channels
    Channel layout                           : L R
    Sampling rate                            : 48.0 kHz
    Frame rate                               : 46.875 FPS (1024 SPF)
    Compression mode                         : Lossy
    Stream size                              : 54.9 MiB (4%)
    Title                                    : BAMTech audio / Français
    Language                                 : French
    Default                                  : Yes
    Alternate group                          : 5

    Audio #5
    ID                                       : 7
    Format                                   : AAC LC
    Format/Info                              : Advanced Audio Codec Low Complexity
    Codec ID                                 : mp4a-40-2
    Duration                                 : 1 h 1 min
    Bit rate mode                            : Constant
    Bit rate                                 : 125 kb/s
    Channel(s)                               : 2 channels
    Channel layout                           : L R
    Sampling rate                            : 48.0 kHz
    Frame rate                               : 46.875 FPS (1024 SPF)
    Compression mode                         : Lossy
    Stream size                              : 54.9 MiB (4%)
    Title                                    : BAMTech audio / Italiano
    Language                                 : Italian
    Default                                  : Yes
    Alternate group                          : 6

    Audio #6
    ID                                       : 8
    Format                                   : AAC LC
    Format/Info                              : Advanced Audio Codec Low Complexity
    Codec ID                                 : mp4a-40-2
    Duration                                 : 1 h 1 min
    Bit rate mode                            : Constant
    Bit rate                                 : 125 kb/s
    Channel(s)                               : 2 channels
    Channel layout                           : L R
    Sampling rate                            : 48.0 kHz
    Frame rate                               : 46.875 FPS (1024 SPF)
    Compression mode                         : Lossy
    Stream size                              : 54.9 MiB (4%)
    Title                                    : BAMTech audio / Magyar
    Language                                 : Hungarian
    Default                                  : Yes
    Alternate group                          : 7

    Audio #7
    ID                                       : 9
    Format                                   : AAC LC
    Format/Info                              : Advanced Audio Codec Low Complexity
    Codec ID                                 : mp4a-40-2
    Duration                                 : 1 h 1 min
    Bit rate mode                            : Constant
    Bit rate                                 : 125 kb/s
    Channel(s)                               : 2 channels
    Channel layout                           : L R
    Sampling rate                            : 48.0 kHz
    Frame rate                               : 46.875 FPS (1024 SPF)
    Compression mode                         : Lossy
    Stream size                              : 54.9 MiB (4%)
    Title                                    : BAMTech audio / Polski
    Language                                 : Polish
    Default                                  : Yes
    Alternate group                          : 8

    Audio #8
    ID                                       : 10
    Format                                   : AAC LC
    Format/Info                              : Advanced Audio Codec Low Complexity
    Codec ID                                 : mp4a-40-2
    Duration                                 : 1 h 1 min
    Bit rate mode                            : Constant
    Bit rate                                 : 125 kb/s
    Channel(s)                               : 2 channels
    Channel layout                           : L R
    Sampling rate                            : 48.0 kHz
    Frame rate                               : 46.875 FPS (1024 SPF)
    Compression mode                         : Lossy
    Stream size                              : 54.9 MiB (4%)
    Title                                    : BAMTech audio / Türkçe
    Language                                 : Turkish
    Default                                  : Yes
    Alternate group                          : 9

    Text #1
    ID                                       : 11
    Format                                   : Timed Text
    Muxing mode                              : sbtl
    Codec ID                                 : tx3g
    Duration                                 : 1 h 1 min
    Bit rate mode                            : Variable
    Bit rate                                 : 46 b/s
    Stream size                              : 20.6 KiB (0%)
    Title                                    : Chinese (Hong Kong)
    Language                                 : Chinese
    Default                                  : No
    Forced                                   : No
    Alternate group                          : 10

    Text #2
    ID                                       : 12
    Format                                   : Timed Text
    Muxing mode                              : sbtl
    Codec ID                                 : tx3g
    Duration                                 : 58 min 48 s
    Bit rate mode                            : Variable
    Bit rate                                 : 46 b/s
    Stream size                              : 19.7 KiB (0%)
    Title                                    : Chinese (Simplified)
    Language                                 : Chinese
    Default                                  : No
    Forced                                   : No
    Alternate group                          : 11

    Text #3
    ID                                       : 13
    Format                                   : Timed Text
    Muxing mode                              : sbtl
    Codec ID                                 : tx3g
    Duration                                 : 1 h 1 min
    Bit rate mode                            : Variable
    Bit rate                                 : 46 b/s
    Stream size                              : 20.7 KiB (0%)
    Title                                    : Chinese (Traditional)
    Language                                 : Chinese
    Default                                  : No
    Forced                                   : No
    Alternate group                          : 12

    Text #4
    ID                                       : 14
    Format                                   : Timed Text
    Muxing mode                              : sbtl
    Codec ID                                 : tx3g
    Duration                                 : 1 h 1 min
    Bit rate mode                            : Variable
    Bit rate                                 : 57 b/s
    Stream size                              : 25.8 KiB (0%)
    Title                                    : Dansk
    Language                                 : Danish
    Default                                  : No
    Forced                                   : No
    Alternate group                          : 13

    Text #5
    ID                                       : 15
    Format                                   : Timed Text
    Muxing mode                              : sbtl
    Codec ID                                 : tx3g
    Duration                                 : 4 min 23 s
    Duration_FirstFrame                      : 4 min 17 s
    Bit rate mode                            : Variable
    Bit rate                                 : 1 b/s
    Stream size                              : 31.0 Bytes (0%)
    Title                                    : de--forced--
    Language                                 : German
    Default                                  : No
    Forced                                   : No
    Alternate group                          : 14

    Text #6
    ID                                       : 16
    Format                                   : Timed Text
    Muxing mode                              : sbtl
    Codec ID                                 : tx3g
    Duration                                 : 1 h 1 min
    Bit rate mode                            : Variable
    Bit rate                                 : 60 b/s
    Stream size                              : 27.0 KiB (0%)
    Title                                    : Deutsch
    Language                                 : German
    Default                                  : No
    Forced                                   : No
    Alternate group                          : 15

    Text #7
    ID                                       : 17
    Format                                   : Timed Text
    Muxing mode                              : sbtl
    Codec ID                                 : tx3g
    Duration                                 : 1 h 1 min
    Bit rate mode                            : Variable
    Bit rate                                 : 81 b/s
    Stream size                              : 36.0 KiB (0%)
    Title                                    : English [CC]
    Language                                 : English
    Default                                  : No
    Forced                                   : No
    Alternate group                          : 16

    Text #8
    ID                                       : 18
    Format                                   : Timed Text
    Muxing mode                              : sbtl
    Codec ID                                 : tx3g
    Duration                                 : 4 min 23 s
    Duration_FirstFrame                      : 4 min 18 s
    Bit rate mode                            : Variable
    Bit rate                                 : 1 b/s
    Stream size                              : 30.0 Bytes (0%)
    Title                                    : es-419--forced--
    Language                                 : Spanish
    Default                                  : No
    Forced                                   : No
    Alternate group                          : 17

    Text #9
    ID                                       : 19
    Format                                   : Timed Text
    Muxing mode                              : sbtl
    Codec ID                                 : tx3g
    Duration                                 : 4 min 23 s
    Duration_FirstFrame                      : 4 min 19 s
    Bit rate mode                            : Variable
    Bit rate                                 : 1 b/s
    Stream size                              : 26.0 Bytes (0%)
    Title                                    : es-ES--forced--
    Language                                 : Spanish
    Default                                  : No
    Forced                                   : No
    Alternate group                          : 18

    Text #10
    ID                                       : 20
    Format                                   : Timed Text
    Muxing mode                              : sbtl
    Codec ID                                 : tx3g
    Duration                                 : 1 h 1 min
    Bit rate mode                            : Variable
    Bit rate                                 : 59 b/s
    Stream size                              : 26.2 KiB (0%)
    Title                                    : Español
    Language                                 : Spanish
    Default                                  : No
    Forced                                   : No
    Alternate group                          : 19

    Text #11
    ID                                       : 21
    Format                                   : Timed Text
    Muxing mode                              : sbtl
    Codec ID                                 : tx3g
    Duration                                 : 1 h 1 min
    Bit rate mode                            : Variable
    Bit rate                                 : 59 b/s
    Stream size                              : 26.3 KiB (0%)
    Title                                    : Español (Latinoamericano)
    Language                                 : Spanish
    Default                                  : No
    Forced                                   : No
    Alternate group                          : 20

    Text #12
    ID                                       : 22
    Format                                   : Timed Text
    Muxing mode                              : sbtl
    Codec ID                                 : tx3g
    Duration                                 : 4 min 23 s
    Duration_FirstFrame                      : 4 min 19 s
    Bit rate mode                            : Variable
    Bit rate                                 : 1 b/s
    Stream size                              : 32.0 Bytes (0%)
    Title                                    : fr-FR--forced--
    Language                                 : French
    Default                                  : No
    Forced                                   : No
    Alternate group                          : 21

    Text #13
    ID                                       : 23
    Format                                   : Timed Text
    Muxing mode                              : sbtl
    Codec ID                                 : tx3g
    Duration                                 : 1 h 1 min
    Bit rate mode                            : Variable
    Bit rate                                 : 62 b/s
    Stream size                              : 27.9 KiB (0%)
    Title                                    : Français
    Language                                 : French
    Default                                  : No
    Forced                                   : No
    Alternate group                          : 22

    Text #14
    ID                                       : 24
    Format                                   : Timed Text
    Muxing mode                              : sbtl
    Codec ID                                 : tx3g
    Duration                                 : 1 h 1 min
    Bit rate mode                            : Variable
    Bit rate                                 : 88 b/s
    Stream size                              : 39.6 KiB (0%)
    Title                                    : Greek
    Language                                 : Greek
    Default                                  : No
    Forced                                   : No
    Alternate group                          : 23

    Text #15
    ID                                       : 25
    Format                                   : Timed Text
    Muxing mode                              : sbtl
    Codec ID                                 : tx3g
    Duration                                 : 4 min 28 s
    Bit rate mode                            : Variable
    Bit rate                                 : 1 b/s
    Stream size                              : 41.0 Bytes (0%)
    Title                                    : hu--forced--
    Language                                 : Hungarian
    Default                                  : No
    Forced                                   : No
    Alternate group                          : 24

    Text #16
    ID                                       : 26
    Format                                   : Timed Text
    Muxing mode                              : sbtl
    Codec ID                                 : tx3g
    Duration                                 : 27 min 18 s
    Bit rate mode                            : Variable
    Bit rate                                 : 0 b/s
    Stream size                              : 98.0 Bytes (0%)
    Title                                    : it--forced--
    Language                                 : Italian
    Default                                  : No
    Forced                                   : No
    Alternate group                          : 25

    Text #17
    ID                                       : 27
    Format                                   : Timed Text
    Muxing mode                              : sbtl
    Codec ID                                 : tx3g
    Duration                                 : 1 h 1 min
    Bit rate mode                            : Variable
    Bit rate                                 : 58 b/s
    Stream size                              : 26.0 KiB (0%)
    Title                                    : Italiano
    Language                                 : Italian
    Default                                  : No
    Forced                                   : No
    Alternate group                          : 26

    Text #18
    ID                                       : 28
    Format                                   : Timed Text
    Muxing mode                              : sbtl
    Codec ID                                 : tx3g
    Duration                                 : 1 h 1 min
    Bit rate mode                            : Variable
    Bit rate                                 : 49 b/s
    Stream size                              : 21.9 KiB (0%)
    Title                                    : Japanese
    Language                                 : Japanese
    Default                                  : No
    Forced                                   : No
    Alternate group                          : 27

    Text #19
    ID                                       : 29
    Format                                   : Timed Text
    Muxing mode                              : sbtl
    Codec ID                                 : tx3g
    Duration                                 : 1 h 1 min
    Bit rate mode                            : Variable
    Bit rate                                 : 49 b/s
    Stream size                              : 22.0 KiB (0%)
    Title                                    : Korean
    Language                                 : Korean
    Default                                  : No
    Forced                                   : No
    Alternate group                          : 28

    Text #20
    ID                                       : 30
    Format                                   : Timed Text
    Muxing mode                              : sbtl
    Codec ID                                 : tx3g
    Duration                                 : 1 h 1 min
    Bit rate mode                            : Variable
    Bit rate                                 : 59 b/s
    Stream size                              : 26.4 KiB (0%)
    Title                                    : Magyar
    Language                                 : Hungarian
    Default                                  : No
    Forced                                   : No
    Alternate group                          : 29

    Text #21
    ID                                       : 31
    Format                                   : Timed Text
    Muxing mode                              : sbtl
    Codec ID                                 : tx3g
    Duration                                 : 1 h 1 min
    Bit rate mode                            : Variable
    Bit rate                                 : 57 b/s
    Stream size                              : 25.5 KiB (0%)
    Title                                    : Nederlands
    Language                                 : Dutch
    Default                                  : No
    Forced                                   : No
    Alternate group                          : 30

    Text #22
    ID                                       : 32
    Format                                   : Timed Text
    Muxing mode                              : sbtl
    Codec ID                                 : tx3g
    Duration                                 : 1 h 1 min
    Bit rate mode                            : Variable
    Bit rate                                 : 57 b/s
    Stream size                              : 25.3 KiB (0%)
    Title                                    : Norsk
    Language                                 : Norwegian
    Default                                  : No
    Forced                                   : No
    Alternate group                          : 31

    Text #23
    ID                                       : 33
    Format                                   : Timed Text
    Muxing mode                              : sbtl
    Codec ID                                 : tx3g
    Duration                                 : 1 h 1 min
    Bit rate mode                            : Variable
    Bit rate                                 : 59 b/s
    Stream size                              : 26.6 KiB (0%)
    Title                                    : Polski
    Language                                 : Polish
    Default                                  : No
    Forced                                   : No
    Alternate group                          : 32

    Text #24
    ID                                       : 34
    Format                                   : Timed Text
    Muxing mode                              : sbtl
    Codec ID                                 : tx3g
    Duration                                 : 1 h 1 min
    Bit rate mode                            : Variable
    Bit rate                                 : 58 b/s
    Stream size                              : 25.8 KiB (0%)
    Title                                    : Português
    Language                                 : Portuguese
    Default                                  : No
    Forced                                   : No
    Alternate group                          : 33

    Text #25
    ID                                       : 35
    Format                                   : Timed Text
    Muxing mode                              : sbtl
    Codec ID                                 : tx3g
    Duration                                 : 1 h 1 min
    Bit rate mode                            : Variable
    Bit rate                                 : 57 b/s
    Stream size                              : 25.6 KiB (0%)
    Title                                    : Português (Brasil)
    Language                                 : Portuguese
    Default                                  : No
    Forced                                   : No
    Alternate group                          : 34

    Text #26
    ID                                       : 36
    Format                                   : Timed Text
    Muxing mode                              : sbtl
    Codec ID                                 : tx3g
    Duration                                 : 4 min 23 s
    Duration_FirstFrame                      : 4 min 16 s
    Bit rate mode                            : Variable
    Bit rate                                 : 1 b/s
    Stream size                              : 29.0 Bytes (0%)
    Title                                    : pt-BR--forced--
    Language                                 : Portuguese
    Default                                  : No
    Forced                                   : No
    Alternate group                          : 35

    Text #27
    ID                                       : 37
    Format                                   : Timed Text
    Muxing mode                              : sbtl
    Codec ID                                 : tx3g
    Duration                                 : 1 h 1 min
    Bit rate mode                            : Variable
    Bit rate                                 : 60 b/s
    Stream size                              : 26.7 KiB (0%)
    Title                                    : Română
    Language                                 : Romanian
    Default                                  : No
    Forced                                   : No
    Alternate group                          : 36

    Text #28
    ID                                       : 38
    Format                                   : Timed Text
    Muxing mode                              : sbtl
    Codec ID                                 : tx3g
    Duration                                 : 1 h 1 min
    Bit rate mode                            : Variable
    Bit rate                                 : 58 b/s
    Stream size                              : 25.8 KiB (0%)
    Title                                    : Suomi
    Language                                 : Finnish
    Default                                  : No
    Forced                                   : No
    Alternate group                          : 37

    Text #29
    ID                                       : 39
    Format                                   : Timed Text
    Muxing mode                              : sbtl
    Codec ID                                 : tx3g
    Duration                                 : 1 h 1 min
    Bit rate mode                            : Variable
    Bit rate                                 : 57 b/s
    Stream size                              : 25.7 KiB (0%)
    Title                                    : Svenska
    Language                                 : Swedish
    Default                                  : No
    Forced                                   : No
    Alternate group                          : 38

    Text #30
    ID                                       : 40
    Format                                   : Timed Text
    Muxing mode                              : sbtl
    Codec ID                                 : tx3g
    Duration                                 : 4 min 28 s
    Duration_FirstFrame                      : 4 min 14 s
    Bit rate mode                            : Variable
    Bit rate                                 : 1 b/s
    Stream size                              : 29.0 Bytes (0%)
    Title                                    : tr--forced--
    Language                                 : Turkish
    Default                                  : No
    Forced                                   : No
    Alternate group                          : 39

    Text #31
    ID                                       : 41
    Format                                   : Timed Text
    Muxing mode                              : sbtl
    Codec ID                                 : tx3g
    Duration                                 : 1 h 1 min
    Bit rate mode                            : Variable
    Bit rate                                 : 59 b/s
    Stream size                              : 26.6 KiB (0%)
    Title                                    : Türkçe
    Language                                 : Turkish
    Default                                  : No
    Forced                                   : No
    Alternate group                          : 40

    Text #32
    ID                                       : 42
    Format                                   : Timed Text
    Muxing mode                              : sbtl
    Codec ID                                 : tx3g
    Duration                                 : 1 h 1 min
    Bit rate mode                            : Variable
    Bit rate                                 : 58 b/s
    Stream size                              : 25.8 KiB (0%)
    Title                                    : Čeština
    Language                                 : Czech
    Default                                  : Yes
    Forced                                   : No
    Alternate group                          : 41











    + Pridaj vlastnu verziu tohto torrentu +


    Upozornenie:
    Ziadny zo zobrazených súborov sa nenachádza na tomto serveri. Server slúzi len k síreniu vlastnorucne vytvorených aplikácií, videí, hudby ai. Autori stránok nenesú ziadnu zodpovednost za zverejnené odkazy, komentáre a obsah súborov. Vsetky komentáre, odkazy, súbory ktoré by svojou povahou mohli byt v rozpore zo zákonmi sem vkladáte na vlastnú zodpovednost. Autori stránok si vyhradzujú právo cenzúry odkazov, komentárov príp. súborov, ktoré by svojou povahou mohli byt v rozpore zo zákonmi a dobrými mravmi. Dodrzujte pravidlá!


    No comments...


    Back

    Na serveru se nenalézají zádne soubory. Za odkazy jsou výhradně zodpovědní uzivatelé a návstěvníci tohoto trackeru. Administrátor není zodpovědný za pridaný obsah ani za skody zpusobené uzivateli. Nesmíte pouzívat tuto webovou stránku pro distribuovaní nebo download zádného materiálu pokud nemáte povolení od príslusného vlastníka práv. Uzivatelé jsou zodpovědní za dodrzování těchto pravidel a podmínek. Owner má právo kdykoliv změnit pravidla tohoto trackeru.

    [ Script trval: 0.027 sec. ] - [ GZIP: enabled ]
    Je zhruba 19:54
    memcache

    TOPlist