Tvoj účet nieje VIP.
Preto sú tvoje funkcie a možnosti značne obmedzené.
Pre aktiváciu VIP klikni sem.

The Old Man / Starej chlap (S01)(720p)(AVC)(WebDl)(Multi 8 lang)(MultiSUB) = CSFD 68% | SkTorrent.eu

Cz-SkTorrent open Tracker, na volné zdielanie súborov. Pridajte sa k nasej komunite a získajte pristup k tisícom torrentov.

  • vysoká rýchlost
  • úplne zdarma
  • prevazne Slovenska a Ceska scena
  • ste tu s nami uz 5 rokov - Dakujeme
  • Vitaj Guest (Login) Ako stahovat
    torrenty?
    Torrenty:
    v1 textová
    v2 obrázková
    Ako sa stat
    Uploaderom
    Online
    Filmy
    Forum
    Pravidlá
    BitTorrent
    klient
    Meno: Heslo:
    Zaregistrovat
    Po zaregistrovaní mozte volne stahovat
    Zabudol som heslo

    The Old Man / Starej chlap (S01)(720p)(AVC)(WebDl)(Multi 8 lang)(MultiSUB) = CSFD 68% Názov:The Old Man / Starej chlap (S01)(720p)(AVC)(WebDl)(Multi 8 lang)(MultiSUB) = CSFD 68% Hodnocení: Stiahnut
    Pozriet Online
    Kategória:Seriál Velikost:8.3 GB BitTorrent klient
    Pridaný: Súbory:
    Skontrolován:2022-11-20 Peerov:16 (Seed: 16, Leech: 0)
    Zaner:Akcni,Drama,Thriller Uploader:Uvidis, az ked budes
    VIP
    Kúp nám Pivo 1,10€

    Kúp nám Pivo
    Pridaj do zalozky
    Pridaj do zalozky





    [center]






    Movie Name: The Old Man (S01)
    IMDb Rating: 7.7/10

    Quality: 720p (WebDL)
    Language: AC3 5.1 - English , German , Spanish, Italian , Portuguese , French , Hungarian , Polish , Turkish ,
    Subtitles: Multi 32+
    Director: Jon Watts, Jet Wilkinson, Greg Yaitanes, Zetna Fuentes
    Writers: Jonathan E. Steinberg, Robert Levine
    Genres: Action | Drama | Thiller |


    A retired CIA agent is hunted by both the agency he once worked for and his own nightmares, when an unknown man suddenly visits him after nearly three decades.





    [/center]
    Format                                   : Matroska
    Format version                           : Version 4
    File size                                : 1.86 GiB
    Duration                                 : 1 h 1 min
    Overall bit rate mode                    : Variable
    Overall bit rate                         : 4 352 kb/s
    Movie name                               : I
    Encoded date                             : UTC 2022-11-06 14:45:18
    Writing application                      : mkvmerge v68.0.0 ('The Curtain') 64-bit
    Writing library                          : libebml v1.4.2 + libmatroska v1.6.4

    Video
    ID                                       : 1
    Format                                   : AVC
    Format/Info                              : Advanced Video Codec
    Format profile                           : High@L3.1
    Format settings                          : CABAC / 4 Ref Frames
    Format settings, CABAC                   : Yes
    Format settings, Reference frames        : 4 frames
    Codec ID                                 : V_MPEG4/ISO/AVC
    Duration                                 : 1 h 1 min
    Bit rate mode                            : Variable
    Bit rate                                 : 2 041 kb/s
    Maximum bit rate                         : 6 375 kb/s
    Width                                    : 1 280 pixels
    Height                                   : 720 pixels
    Display aspect ratio                     : 16:9
    Frame rate mode                          : Constant
    Frame rate                               : 23.976 (24000/1001) FPS
    Color space                              : YUV
    Chroma subsampling                       : 4:2:0
    Bit depth                                : 8 bits
    Scan type                                : Progressive
    Bits/(Pixel*Frame)                       : 0.092
    Stream size                              : 895 MiB (47%)
    Default                                  : Yes
    Forced                                   : No
    Color range                              : Limited
    Color primaries                          : BT.709
    Transfer characteristics                 : BT.709
    Matrix coefficients                      : BT.709

    Audio #1
    ID                                       : 2
    Format                                   : E-AC-3
    Format/Info                              : Enhanced AC-3
    Commercial name                          : Dolby Digital Plus
    Codec ID                                 : A_EAC3
    Duration                                 : 1 h 1 min
    Bit rate mode                            : Constant
    Bit rate                                 : 256 kb/s
    Channel(s)                               : 6 channels
    Channel layout                           : L R C LFE Ls Rs
    Sampling rate                            : 48.0 kHz
    Frame rate                               : 31.250 FPS (1536 SPF)
    Compression mode                         : Lossy
    Stream size                              : 112 MiB (6%)
    Language                                 : German
    Service kind                             : Complete Main
    Default                                  : No
    Forced                                   : No

    Audio #2
    ID                                       : 3
    Format                                   : E-AC-3
    Format/Info                              : Enhanced AC-3
    Commercial name                          : Dolby Digital Plus
    Codec ID                                 : A_EAC3
    Duration                                 : 1 h 1 min
    Bit rate mode                            : Constant
    Bit rate                                 : 256 kb/s
    Channel(s)                               : 6 channels
    Channel layout                           : L R C LFE Ls Rs
    Sampling rate                            : 48.0 kHz
    Frame rate                               : 31.250 FPS (1536 SPF)
    Compression mode                         : Lossy
    Stream size                              : 112 MiB (6%)
    Language                                 : English
    Service kind                             : Complete Main
    Default                                  : No
    Forced                                   : No

    Audio #3
    ID                                       : 4
    Format                                   : E-AC-3
    Format/Info                              : Enhanced AC-3
    Commercial name                          : Dolby Digital Plus
    Codec ID                                 : A_EAC3
    Duration                                 : 1 h 1 min
    Bit rate mode                            : Constant
    Bit rate                                 : 256 kb/s
    Channel(s)                               : 6 channels
    Channel layout                           : L R C LFE Ls Rs
    Sampling rate                            : 48.0 kHz
    Frame rate                               : 31.250 FPS (1536 SPF)
    Compression mode                         : Lossy
    Stream size                              : 112 MiB (6%)
    Language                                 : Spanish
    Service kind                             : Complete Main
    Default                                  : No
    Forced                                   : No

    Audio #4
    ID                                       : 5
    Format                                   : E-AC-3
    Format/Info                              : Enhanced AC-3
    Commercial name                          : Dolby Digital Plus
    Codec ID                                 : A_EAC3
    Duration                                 : 1 h 1 min
    Bit rate mode                            : Constant
    Bit rate                                 : 256 kb/s
    Channel(s)                               : 6 channels
    Channel layout                           : L R C LFE Ls Rs
    Sampling rate                            : 48.0 kHz
    Frame rate                               : 31.250 FPS (1536 SPF)
    Compression mode                         : Lossy
    Stream size                              : 112 MiB (6%)
    Language                                 : French
    Service kind                             : Complete Main
    Default                                  : No
    Forced                                   : No

    Audio #5
    ID                                       : 6
    Format                                   : E-AC-3
    Format/Info                              : Enhanced AC-3
    Commercial name                          : Dolby Digital Plus
    Codec ID                                 : A_EAC3
    Duration                                 : 1 h 1 min
    Bit rate mode                            : Constant
    Bit rate                                 : 256 kb/s
    Channel(s)                               : 6 channels
    Channel layout                           : L R C LFE Ls Rs
    Sampling rate                            : 48.0 kHz
    Frame rate                               : 31.250 FPS (1536 SPF)
    Compression mode                         : Lossy
    Stream size                              : 112 MiB (6%)
    Language                                 : Italian
    Service kind                             : Complete Main
    Default                                  : No
    Forced                                   : No

    Audio #6
    ID                                       : 7
    Format                                   : E-AC-3
    Format/Info                              : Enhanced AC-3
    Commercial name                          : Dolby Digital Plus
    Codec ID                                 : A_EAC3
    Duration                                 : 1 h 1 min
    Bit rate mode                            : Constant
    Bit rate                                 : 256 kb/s
    Channel(s)                               : 6 channels
    Channel layout                           : L R C LFE Ls Rs
    Sampling rate                            : 48.0 kHz
    Frame rate                               : 31.250 FPS (1536 SPF)
    Compression mode                         : Lossy
    Stream size                              : 112 MiB (6%)
    Language                                 : Hungarian
    Service kind                             : Complete Main
    Default                                  : Yes
    Forced                                   : No

    Audio #7
    ID                                       : 8
    Format                                   : E-AC-3
    Format/Info                              : Enhanced AC-3
    Commercial name                          : Dolby Digital Plus
    Codec ID                                 : A_EAC3
    Duration                                 : 1 h 1 min
    Bit rate mode                            : Constant
    Bit rate                                 : 256 kb/s
    Channel(s)                               : 6 channels
    Channel layout                           : L R C LFE Ls Rs
    Sampling rate                            : 48.0 kHz
    Frame rate                               : 31.250 FPS (1536 SPF)
    Compression mode                         : Lossy
    Stream size                              : 112 MiB (6%)
    Language                                 : Polish
    Service kind                             : Complete Main
    Default                                  : No
    Forced                                   : No

    Audio #8
    ID                                       : 9
    Format                                   : E-AC-3
    Format/Info                              : Enhanced AC-3
    Commercial name                          : Dolby Digital Plus
    Codec ID                                 : A_EAC3
    Duration                                 : 1 h 1 min
    Bit rate mode                            : Constant
    Bit rate                                 : 256 kb/s
    Channel(s)                               : 6 channels
    Channel layout                           : L R C LFE Ls Rs
    Sampling rate                            : 48.0 kHz
    Frame rate                               : 31.250 FPS (1536 SPF)
    Compression mode                         : Lossy
    Stream size                              : 112 MiB (6%)
    Language                                 : Portuguese
    Service kind                             : Complete Main
    Default                                  : No
    Forced                                   : No

    Audio #9
    ID                                       : 10
    Format                                   : E-AC-3
    Format/Info                              : Enhanced AC-3
    Commercial name                          : Dolby Digital Plus
    Codec ID                                 : A_EAC3
    Duration                                 : 1 h 1 min
    Bit rate mode                            : Constant
    Bit rate                                 : 256 kb/s
    Channel(s)                               : 6 channels
    Channel layout                           : L R C LFE Ls Rs
    Sampling rate                            : 48.0 kHz
    Frame rate                               : 31.250 FPS (1536 SPF)
    Compression mode                         : Lossy
    Stream size                              : 112 MiB (6%)
    Language                                 : Turkish
    Service kind                             : Complete Main
    Default                                  : No
    Forced                                   : No

    Text #1
    ID                                       : 11
    Format                                   : UTF-8
    Codec ID                                 : S_TEXT/UTF8
    Codec ID/Info                            : UTF-8 Plain Text
    Duration                                 : 1 h 0 min
    Bit rate                                 : 41 b/s
    Count of elements                        : 596
    Stream size                              : 18.4 KiB (0%)
    Language                                 : Chinese
    Default                                  : No
    Forced                                   : No

    Text #2
    ID                                       : 12
    Format                                   : UTF-8
    Codec ID                                 : S_TEXT/UTF8
    Codec ID/Info                            : UTF-8 Plain Text
    Duration                                 : 58 min 33 s
    Bit rate                                 : 40 b/s
    Count of elements                        : 588
    Stream size                              : 17.5 KiB (0%)
    Language                                 : Chinese
    Default                                  : No
    Forced                                   : No

    Text #3
    ID                                       : 13
    Format                                   : UTF-8
    Codec ID                                 : S_TEXT/UTF8
    Codec ID/Info                            : UTF-8 Plain Text
    Duration                                 : 1 h 0 min
    Bit rate                                 : 41 b/s
    Count of elements                        : 596
    Stream size                              : 18.5 KiB (0%)
    Language                                 : Chinese
    Default                                  : No
    Forced                                   : No

    Text #4
    ID                                       : 14
    Format                                   : UTF-8
    Codec ID                                 : S_TEXT/UTF8
    Codec ID/Info                            : UTF-8 Plain Text
    Duration                                 : 1 h 0 min
    Bit rate                                 : 46 b/s
    Count of elements                        : 596
    Stream size                              : 20.5 KiB (0%)
    Language                                 : Danish
    Default                                  : No
    Forced                                   : No

    Text #5
    ID                                       : 15
    Format                                   : UTF-8
    Codec ID                                 : S_TEXT/UTF8
    Codec ID/Info                            : UTF-8 Plain Text
    Duration                                 : 3 s 170 ms
    Bit rate                                 : 63 b/s
    Count of elements                        : 1
    Stream size                              : 25.0 Bytes (0%)
    Language                                 : German
    Default                                  : No
    Forced                                   : No

    Text #6
    ID                                       : 16
    Format                                   : UTF-8
    Codec ID                                 : S_TEXT/UTF8
    Codec ID/Info                            : UTF-8 Plain Text
    Duration                                 : 1 h 0 min
    Bit rate                                 : 49 b/s
    Count of elements                        : 584
    Stream size                              : 21.9 KiB (0%)
    Language                                 : German
    Default                                  : No
    Forced                                   : No

    Text #7
    ID                                       : 17
    Format                                   : UTF-8
    Codec ID                                 : S_TEXT/UTF8
    Codec ID/Info                            : UTF-8 Plain Text
    Duration                                 : 1 h 0 min
    Bit rate                                 : 65 b/s
    Count of elements                        : 976
    Stream size                              : 29.1 KiB (0%)
    Language                                 : English
    Default                                  : No
    Forced                                   : No

    Text #8
    ID                                       : 18
    Format                                   : UTF-8
    Codec ID                                 : S_TEXT/UTF8
    Codec ID/Info                            : UTF-8 Plain Text
    Duration                                 : 2 s 378 ms
    Bit rate                                 : 80 b/s
    Count of elements                        : 1
    Stream size                              : 24.0 Bytes (0%)
    Language                                 : Spanish
    Default                                  : No
    Forced                                   : No

    Text #9
    ID                                       : 19
    Format                                   : UTF-8
    Codec ID                                 : S_TEXT/UTF8
    Codec ID/Info                            : UTF-8 Plain Text
    Duration                                 : 1 s 585 ms
    Bit rate                                 : 100 b/s
    Count of elements                        : 1
    Stream size                              : 20.0 Bytes (0%)
    Language                                 : Spanish
    Default                                  : No
    Forced                                   : No

    Text #10
    ID                                       : 20
    Format                                   : UTF-8
    Codec ID                                 : S_TEXT/UTF8
    Codec ID/Info                            : UTF-8 Plain Text
    Duration                                 : 1 h 0 min
    Bit rate                                 : 47 b/s
    Count of elements                        : 596
    Stream size                              : 21.0 KiB (0%)
    Language                                 : Spanish
    Default                                  : No
    Forced                                   : No

    Text #11
    ID                                       : 21
    Format                                   : UTF-8
    Codec ID                                 : S_TEXT/UTF8
    Codec ID/Info                            : UTF-8 Plain Text
    Duration                                 : 1 h 0 min
    Bit rate                                 : 48 b/s
    Count of elements                        : 587
    Stream size                              : 21.2 KiB (0%)
    Language                                 : Spanish
    Default                                  : No
    Forced                                   : No

    Text #12
    ID                                       : 22
    Format                                   : UTF-8
    Codec ID                                 : S_TEXT/UTF8
    Codec ID/Info                            : UTF-8 Plain Text
    Duration                                 : 1 s 877 ms
    Bit rate                                 : 110 b/s
    Count of elements                        : 1
    Stream size                              : 26.0 Bytes (0%)
    Language                                 : French
    Default                                  : No
    Forced                                   : No

    Text #13
    ID                                       : 23
    Format                                   : UTF-8
    Codec ID                                 : S_TEXT/UTF8
    Codec ID/Info                            : UTF-8 Plain Text
    Duration                                 : 1 h 0 min
    Bit rate                                 : 51 b/s
    Count of elements                        : 592
    Stream size                              : 22.8 KiB (0%)
    Language                                 : French
    Default                                  : No
    Forced                                   : No

    Text #14
    ID                                       : 24
    Format                                   : UTF-8
    Codec ID                                 : S_TEXT/UTF8
    Codec ID/Info                            : UTF-8 Plain Text
    Duration                                 : 1 h 0 min
    Bit rate                                 : 78 b/s
    Count of elements                        : 589
    Stream size                              : 34.4 KiB (0%)
    Language                                 : Greek
    Default                                  : No
    Forced                                   : No

    Text #15
    ID                                       : 25
    Format                                   : UTF-8
    Codec ID                                 : S_TEXT/UTF8
    Codec ID/Info                            : UTF-8 Plain Text
    Duration                                 : 4 min 13 s
    Bit rate                                 : 0 b/s
    Count of elements                        : 2
    Stream size                              : 31.0 Bytes (0%)
    Language                                 : Hungarian
    Default                                  : No
    Forced                                   : No

    Text #16
    ID                                       : 26
    Format                                   : UTF-8
    Codec ID                                 : S_TEXT/UTF8
    Codec ID/Info                            : UTF-8 Plain Text
    Duration                                 : 25 min 27 s
    Bit rate                                 : 0 b/s
    Count of elements                        : 7
    Stream size                              : 68.0 Bytes (0%)
    Language                                 : Italian
    Default                                  : No
    Forced                                   : No

    Text #17
    ID                                       : 27
    Format                                   : UTF-8
    Codec ID                                 : S_TEXT/UTF8
    Codec ID/Info                            : UTF-8 Plain Text
    Duration                                 : 1 h 0 min
    Bit rate                                 : 46 b/s
    Count of elements                        : 597
    Stream size                              : 20.8 KiB (0%)
    Language                                 : Italian
    Default                                  : No
    Forced                                   : No

    Text #18
    ID                                       : 28
    Format                                   : UTF-8
    Codec ID                                 : S_TEXT/UTF8
    Codec ID/Info                            : UTF-8 Plain Text
    Duration                                 : 1 h 0 min
    Bit rate                                 : 44 b/s
    Count of elements                        : 595
    Stream size                              : 19.7 KiB (0%)
    Language                                 : Japanese
    Default                                  : No
    Forced                                   : No

    Text #19
    ID                                       : 29
    Format                                   : UTF-8
    Codec ID                                 : S_TEXT/UTF8
    Codec ID/Info                            : UTF-8 Plain Text
    Duration                                 : 1 h 0 min
    Bit rate                                 : 44 b/s
    Count of elements                        : 594
    Stream size                              : 19.9 KiB (0%)
    Language                                 : Korean
    Default                                  : No
    Forced                                   : No

    Text #20
    ID                                       : 30
    Format                                   : UTF-8
    Codec ID                                 : S_TEXT/UTF8
    Codec ID/Info                            : UTF-8 Plain Text
    Duration                                 : 1 h 0 min
    Bit rate                                 : 48 b/s
    Count of elements                        : 596
    Stream size                              : 21.2 KiB (0%)
    Language                                 : Hungarian
    Default                                  : No
    Forced                                   : No

    Text #21
    ID                                       : 31
    Format                                   : UTF-8
    Codec ID                                 : S_TEXT/UTF8
    Codec ID/Info                            : UTF-8 Plain Text
    Duration                                 : 1 h 0 min
    Bit rate                                 : 46 b/s
    Count of elements                        : 586
    Stream size                              : 20.3 KiB (0%)
    Language                                 : Dutch
    Default                                  : No
    Forced                                   : No

    Text #22
    ID                                       : 32
    Format                                   : UTF-8
    Codec ID                                 : S_TEXT/UTF8
    Codec ID/Info                            : UTF-8 Plain Text
    Duration                                 : 1 h 0 min
    Bit rate                                 : 45 b/s
    Count of elements                        : 597
    Stream size                              : 20.1 KiB (0%)
    Language                                 : Norwegian
    Default                                  : No
    Forced                                   : No

    Text #23
    ID                                       : 33
    Format                                   : UTF-8
    Codec ID                                 : S_TEXT/UTF8
    Codec ID/Info                            : UTF-8 Plain Text
    Duration                                 : 1 h 0 min
    Bit rate                                 : 47 b/s
    Count of elements                        : 597
    Stream size                              : 21.4 KiB (0%)
    Language                                 : Polish
    Default                                  : No
    Forced                                   : No

    Text #24
    ID                                       : 34
    Format                                   : UTF-8
    Codec ID                                 : S_TEXT/UTF8
    Codec ID/Info                            : UTF-8 Plain Text
    Duration                                 : 1 h 0 min
    Bit rate                                 : 46 b/s
    Count of elements                        : 597
    Stream size                              : 20.7 KiB (0%)
    Language                                 : Portuguese
    Default                                  : No
    Forced                                   : No

    Text #25
    ID                                       : 35
    Format                                   : UTF-8
    Codec ID                                 : S_TEXT/UTF8
    Codec ID/Info                            : UTF-8 Plain Text
    Duration                                 : 1 h 0 min
    Bit rate                                 : 46 b/s
    Count of elements                        : 590
    Stream size                              : 20.4 KiB (0%)
    Language                                 : Portuguese
    Default                                  : No
    Forced                                   : No

    Text #26
    ID                                       : 36
    Format                                   : UTF-8
    Codec ID                                 : S_TEXT/UTF8
    Codec ID/Info                            : UTF-8 Plain Text
    Duration                                 : 3 s 379 ms
    Bit rate                                 : 54 b/s
    Count of elements                        : 1
    Stream size                              : 23.0 Bytes (0%)
    Language                                 : Portuguese
    Default                                  : No
    Forced                                   : No

    Text #27
    ID                                       : 37
    Format                                   : UTF-8
    Codec ID                                 : S_TEXT/UTF8
    Codec ID/Info                            : UTF-8 Plain Text
    Duration                                 : 1 h 0 min
    Bit rate                                 : 48 b/s
    Count of elements                        : 587
    Stream size                              : 21.5 KiB (0%)
    Language                                 : Romanian
    Default                                  : No
    Forced                                   : No

    Text #28
    ID                                       : 38
    Format                                   : UTF-8
    Codec ID                                 : S_TEXT/UTF8
    Codec ID/Info                            : UTF-8 Plain Text
    Duration                                 : 1 h 0 min
    Bit rate                                 : 46 b/s
    Count of elements                        : 595
    Stream size                              : 20.6 KiB (0%)
    Language                                 : Finnish
    Default                                  : No
    Forced                                   : No

    Text #29
    ID                                       : 39
    Format                                   : UTF-8
    Codec ID                                 : S_TEXT/UTF8
    Codec ID/Info                            : UTF-8 Plain Text
    Duration                                 : 1 h 0 min
    Bit rate                                 : 46 b/s
    Count of elements                        : 596
    Stream size                              : 20.5 KiB (0%)
    Language                                 : Swedish
    Default                                  : No
    Forced                                   : No

    Text #30
    ID                                       : 40
    Format                                   : UTF-8
    Codec ID                                 : S_TEXT/UTF8
    Codec ID/Info                            : UTF-8 Plain Text
    Duration                                 : 6 s 965 ms
    Bit rate                                 : 26 b/s
    Count of elements                        : 1
    Stream size                              : 23.0 Bytes (0%)
    Language                                 : Turkish
    Default                                  : No
    Forced                                   : No

    Text #31
    ID                                       : 41
    Format                                   : UTF-8
    Codec ID                                 : S_TEXT/UTF8
    Codec ID/Info                            : UTF-8 Plain Text
    Duration                                 : 1 h 0 min
    Bit rate                                 : 48 b/s
    Count of elements                        : 596
    Stream size                              : 21.4 KiB (0%)
    Language                                 : Turkish
    Default                                  : No
    Forced                                   : No

    Text #32
    ID                                       : 42
    Format                                   : UTF-8
    Codec ID                                 : S_TEXT/UTF8
    Codec ID/Info                            : UTF-8 Plain Text
    Duration                                 : 1 h 0 min
    Bit rate                                 : 46 b/s
    Count of elements                        : 597
    Stream size                              : 20.6 KiB (0%)
    Language                                 : Czech
    Default                                  : Yes
    Forced                                   : No









    simor, pohee,

    + Pridaj vlastnu verziu tohto torrentu +


    Upozornenie:
    Ziadny zo zobrazených súborov sa nenachádza na tomto serveri. Server slúzi len k síreniu vlastnorucne vytvorených aplikácií, videí, hudby ai. Autori stránok nenesú ziadnu zodpovednost za zverejnené odkazy, komentáre a obsah súborov. Vsetky komentáre, odkazy, súbory ktoré by svojou povahou mohli byt v rozpore zo zákonmi sem vkladáte na vlastnú zodpovednost. Autori stránok si vyhradzujú právo cenzúry odkazov, komentárov príp. súborov, ktoré by svojou povahou mohli byt v rozpore zo zákonmi a dobrými mravmi. Dodrzujte pravidlá!


    No comments...


    Back

    Na serveru se nenalézají zádne soubory. Za odkazy jsou výhradně zodpovědní uzivatelé a návstěvníci tohoto trackeru. Administrátor není zodpovědný za pridaný obsah ani za skody zpusobené uzivateli. Nesmíte pouzívat tuto webovou stránku pro distribuovaní nebo download zádného materiálu pokud nemáte povolení od príslusného vlastníka práv. Uzivatelé jsou zodpovědní za dodrzování těchto pravidel a podmínek. Owner má právo kdykoliv změnit pravidla tohoto trackeru.

    [ Script trval: 0.031 sec. ] - [ GZIP: enabled ]
    Je zhruba 21:42
    memcache

    TOPlist