Tvoj účet nieje VIP.
Preto sú tvoje funkcie a možnosti značne obmedzené.
Pre aktiváciu VIP klikni sem.

The Peripheral / Medium (S01E08)(2022)(WebDl)(FHD)(1080p)(AVC)AAC 2.0 - Multi 27 lang)(MultiSub = CSFD 79% | SkTorrent.eu

Cz-SkTorrent open Tracker, na volné zdieľanie súborov. Pridajte sa k našej komunite a získajte prístup k tisícom torrentov.

  • vysoká rýchlosť
  • úplne zdarma
  • prevažne Slovenská a Česká scéna
  • ste tu s nami už 10 rokov - Ďakujeme
  • Vitaj Guest (Login) Ako stahovat
    torrenty?
    Torrenty:
    v1 textová
    v2 obrázková
    Ako sa stat
    Uploaderom
    Online
    Filmy
    Forum
    Pravidlá
    SkTSocial
    BitTorrent
    klient
    Meno: Heslo:
    Zaregistrovat
    Po zaregistrovaní mozte volne stahovat
    Zabudol som heslo

    The Peripheral  / Medium (S01E08)(2022)(WebDl)(FHD)(1080p)(AVC)AAC 2.0 - Multi 27 lang)(MultiSub = CSFD 79% Názov:The Peripheral / Medium (S01E08)(2022)(WebDl)(FHD)(1080p)(AVC)AAC 2.0 - Multi 27 lang)(MultiSub = CSFD 79% Hodnocení:N/A Stiahnut
    Pozriet Online
    Kategória:Seriál - Velikost:1.9 GB BitTorrent klient
    Pridaný: Súbory:
    Skontrolován:2022-12-05 Peerov:6 (Seed: 6, Leech: 0)
    Zaner:Akcni,Drama,Sci-Fi,Thriller Uploader:Uvidis, az ked budes
    VIP
    Kúp nám Pivo 1,10€

    Kúp nám Pivo

    Pridaj do zalozky
    Pridaj do zalozky






    [center]





    Movie Name: The Peripheral S01E08 (2022)
    IMDb Rating: 8.5/10

    Quality: 1080p (WebDL)
    Language: AAC 2.0  - Germany, English , Spanish, Italian , Portuguese , French , Polish , Czech , Japanese , Hindi , Turkish , Tamil , Catalan , Indonesian , Hungarian , Dutch , Romanian , Vietnamese , Greek , Hebrew , Arabic , Kannada , Malayalam , Thai
    Subtitles: Multi 32+
    Director: Alrick Riley, Vincenzo Natali
    Writers: Scott B. Smith
    Genres: Thiller | Drama | Sci-fi |


    Set in the future when technology has subtly altered society, a woman discovers a secret connection to an alternate reality as well as a dark future of her own.




    [/center]

    Format                                   : MPEG-4
    Format profile                           : Base Media
    Codec ID                                 : isom (isom/iso2/mp41)
    File size                                : 1.94 GiB
    Duration                                 : 57 min 35 s
    Overall bit rate mode                    : Variable
    Overall bit rate                         : 4 826 kb/s
    Collection                               : Médium
    Season                                   : 1
    Track name                               : Stvoření tisíců lesů
    Description                              : Tommy se vyrovnává s následky svých činů. Ash hledá pomoc u nepravděpodobného spojence. Cherise se snaží zabránit tomu, aby se ukradená data dostala do nesprávných rukou. Lowbeer oznámí Flynne, že nemůže zachránit Ellu. Wilf vypráví Flynne o své minulosti. Jasper udělá krok, Aelita odhalí svůj plán a Flynne riskuje život, aby zachránila svůj svět.
    Recorded date                            : 2022
    Writing application                      : Lavf58.76.100
    Cover                                    : Yes
    Part_ID                                  : 8

    Video
    ID                                       : 1
    Format                                   : HEVC
    Format/Info                              : High Efficiency Video Coding
    Format profile                           : Main@L4@Main
    Codec ID                                 : hev1
    Codec ID/Info                            : High Efficiency Video Coding
    Duration                                 : 57 min 35 s
    Bit rate                                 : 1 279 kb/s
    Width                                    : 1 920 pixels
    Height                                   : 960 pixels
    Display aspect ratio                     : 2.000
    Frame rate mode                          : Constant
    Frame rate                               : 24.000 FPS
    Standard                                 : NTSC
    Color space                              : YUV
    Chroma subsampling                       : 4:2:0
    Bit depth                                : 8 bits
    Bits/(Pixel*Frame)                       : 0.029
    Stream size                              : 527 MiB (26%)
    Color range                              : Limited
    Color primaries                          : BT.709
    Transfer characteristics                 : BT.709
    Matrix coefficients                      : BT.709
    Codec configuration box                  : hvcC

    Audio #1
    ID                                       : 3
    Format                                   : AAC LC
    Format/Info                              : Advanced Audio Codec Low Complexity
    Codec ID                                 : mp4a-40-2
    Duration                                 : 57 min 35 s
    Bit rate mode                            : Constant
    Bit rate                                 : 128 kb/s
    Channel(s)                               : 2 channels
    Channel layout                           : L R
    Sampling rate                            : 48.0 kHz
    Frame rate                               : 46.875 FPS (1024 SPF)
    Compression mode                         : Lossy
    Stream size                              : 52.7 MiB (3%)
    Language                                 : Malay
    Default                                  : Yes
    Alternate group                          : 2

    Audio #2
    ID                                       : 4
    Format                                   : AAC LC
    Format/Info                              : Advanced Audio Codec Low Complexity
    Codec ID                                 : mp4a-40-2
    Duration                                 : 57 min 35 s
    Bit rate mode                            : Constant
    Bit rate                                 : 128 kb/s
    Channel(s)                               : 2 channels
    Channel layout                           : L R
    Sampling rate                            : 48.0 kHz
    Frame rate                               : 46.875 FPS (1024 SPF)
    Compression mode                         : Lossy
    Stream size                              : 52.7 MiB (3%)
    Language                                 : Catalan
    Default                                  : Yes
    Alternate group                          : 3

    Audio #3
    ID                                       : 5
    Format                                   : AAC LC
    Format/Info                              : Advanced Audio Codec Low Complexity
    Codec ID                                 : mp4a-40-2
    Duration                                 : 57 min 35 s
    Bit rate mode                            : Constant
    Bit rate                                 : 128 kb/s
    Channel(s)                               : 2 channels
    Channel layout                           : L R
    Sampling rate                            : 48.0 kHz
    Frame rate                               : 46.875 FPS (1024 SPF)
    Compression mode                         : Lossy
    Stream size                              : 52.7 MiB (3%)
    Language                                 : German
    Default                                  : Yes
    Alternate group                          : 4

    Audio #4
    ID                                       : 6
    Format                                   : AAC LC
    Format/Info                              : Advanced Audio Codec Low Complexity
    Codec ID                                 : mp4a-40-2
    Duration                                 : 57 min 35 s
    Bit rate mode                            : Constant
    Bit rate                                 : 128 kb/s
    Channel(s)                               : 2 channels
    Channel layout                           : L R
    Sampling rate                            : 48.0 kHz
    Frame rate                               : 46.875 FPS (1024 SPF)
    Compression mode                         : Lossy
    Stream size                              : 52.7 MiB (3%)
    Language                                 : English
    Default                                  : Yes
    Alternate group                          : 5

    Audio #5
    ID                                       : 7
    Format                                   : AAC LC
    Format/Info                              : Advanced Audio Codec Low Complexity
    Codec ID                                 : mp4a-40-2
    Duration                                 : 57 min 35 s
    Bit rate mode                            : Constant
    Bit rate                                 : 128 kb/s
    Channel(s)                               : 2 channels
    Channel layout                           : L R
    Sampling rate                            : 48.0 kHz
    Frame rate                               : 46.875 FPS (1024 SPF)
    Compression mode                         : Lossy
    Stream size                              : 52.7 MiB (3%)
    Language                                 : Spanish
    Default                                  : Yes
    Alternate group                          : 6

    Audio #6
    ID                                       : 8
    Format                                   : AAC LC
    Format/Info                              : Advanced Audio Codec Low Complexity
    Codec ID                                 : mp4a-40-2
    Duration                                 : 57 min 35 s
    Bit rate mode                            : Constant
    Bit rate                                 : 128 kb/s
    Channel(s)                               : 2 channels
    Channel layout                           : L R
    Sampling rate                            : 48.0 kHz
    Frame rate                               : 46.875 FPS (1024 SPF)
    Compression mode                         : Lossy
    Stream size                              : 52.7 MiB (3%)
    Default                                  : Yes
    Alternate group                          : 7

    Audio #7
    ID                                       : 9
    Format                                   : AAC LC
    Format/Info                              : Advanced Audio Codec Low Complexity
    Codec ID                                 : mp4a-40-2
    Duration                                 : 57 min 35 s
    Bit rate mode                            : Constant
    Bit rate                                 : 128 kb/s
    Channel(s)                               : 2 channels
    Channel layout                           : L R
    Sampling rate                            : 48.0 kHz
    Frame rate                               : 46.875 FPS (1024 SPF)
    Compression mode                         : Lossy
    Stream size                              : 52.7 MiB (3%)
    Language                                 : French
    Default                                  : Yes
    Alternate group                          : 8

    Audio #8
    ID                                       : 10
    Format                                   : AAC LC
    Format/Info                              : Advanced Audio Codec Low Complexity
    Codec ID                                 : mp4a-40-2
    Duration                                 : 57 min 35 s
    Bit rate mode                            : Constant
    Bit rate                                 : 128 kb/s
    Channel(s)                               : 2 channels
    Channel layout                           : L R
    Sampling rate                            : 48.0 kHz
    Frame rate                               : 46.875 FPS (1024 SPF)
    Compression mode                         : Lossy
    Stream size                              : 52.7 MiB (3%)
    Language                                 : Indonesian
    Default                                  : Yes
    Alternate group                          : 9

    Audio #9
    ID                                       : 11
    Format                                   : AAC LC
    Format/Info                              : Advanced Audio Codec Low Complexity
    Codec ID                                 : mp4a-40-2
    Duration                                 : 57 min 35 s
    Bit rate mode                            : Constant
    Bit rate                                 : 128 kb/s
    Channel(s)                               : 2 channels
    Channel layout                           : L R
    Sampling rate                            : 48.0 kHz
    Frame rate                               : 46.875 FPS (1024 SPF)
    Compression mode                         : Lossy
    Stream size                              : 52.7 MiB (3%)
    Language                                 : Italian
    Default                                  : Yes
    Alternate group                          : 10

    Audio #10
    ID                                       : 12
    Format                                   : AAC LC
    Format/Info                              : Advanced Audio Codec Low Complexity
    Codec ID                                 : mp4a-40-2
    Duration                                 : 57 min 35 s
    Bit rate mode                            : Constant
    Bit rate                                 : 128 kb/s
    Channel(s)                               : 2 channels
    Channel layout                           : L R
    Sampling rate                            : 48.0 kHz
    Frame rate                               : 46.875 FPS (1024 SPF)
    Compression mode                         : Lossy
    Stream size                              : 52.7 MiB (3%)
    Language                                 : Hungarian
    Default                                  : Yes
    Alternate group                          : 11

    Audio #11
    ID                                       : 13
    Format                                   : AAC LC
    Format/Info                              : Advanced Audio Codec Low Complexity
    Codec ID                                 : mp4a-40-2
    Duration                                 : 57 min 35 s
    Bit rate mode                            : Constant
    Bit rate                                 : 128 kb/s
    Channel(s)                               : 2 channels
    Channel layout                           : L R
    Sampling rate                            : 48.0 kHz
    Frame rate                               : 46.875 FPS (1024 SPF)
    Compression mode                         : Lossy
    Stream size                              : 52.7 MiB (3%)
    Language                                 : Dutch
    Default                                  : Yes
    Alternate group                          : 12

    Audio #12
    ID                                       : 14
    Format                                   : AAC LC
    Format/Info                              : Advanced Audio Codec Low Complexity
    Codec ID                                 : mp4a-40-2
    Duration                                 : 57 min 35 s
    Bit rate mode                            : Constant
    Bit rate                                 : 128 kb/s
    Channel(s)                               : 2 channels
    Channel layout                           : L R
    Sampling rate                            : 48.0 kHz
    Frame rate                               : 46.875 FPS (1024 SPF)
    Compression mode                         : Lossy
    Stream size                              : 52.7 MiB (3%)
    Language                                 : Polish
    Default                                  : Yes
    Alternate group                          : 13

    Audio #13
    ID                                       : 15
    Format                                   : AAC LC
    Format/Info                              : Advanced Audio Codec Low Complexity
    Codec ID                                 : mp4a-40-2
    Duration                                 : 57 min 35 s
    Bit rate mode                            : Constant
    Bit rate                                 : 128 kb/s
    Channel(s)                               : 2 channels
    Channel layout                           : L R
    Sampling rate                            : 48.0 kHz
    Frame rate                               : 46.875 FPS (1024 SPF)
    Compression mode                         : Lossy
    Stream size                              : 52.7 MiB (3%)
    Language                                 : Portuguese
    Default                                  : Yes
    Alternate group                          : 14

    Audio #14
    ID                                       : 16
    Format                                   : AAC LC
    Format/Info                              : Advanced Audio Codec Low Complexity
    Codec ID                                 : mp4a-40-2
    Duration                                 : 57 min 35 s
    Bit rate mode                            : Constant
    Bit rate                                 : 128 kb/s
    Channel(s)                               : 2 channels
    Channel layout                           : L R
    Sampling rate                            : 48.0 kHz
    Frame rate                               : 46.875 FPS (1024 SPF)
    Compression mode                         : Lossy
    Stream size                              : 52.7 MiB (3%)
    Language                                 : Romanian
    Default                                  : Yes
    Alternate group                          : 15

    Audio #15
    ID                                       : 17
    Format                                   : AAC LC
    Format/Info                              : Advanced Audio Codec Low Complexity
    Codec ID                                 : mp4a-40-2
    Duration                                 : 57 min 35 s
    Bit rate mode                            : Constant
    Bit rate                                 : 128 kb/s
    Channel(s)                               : 2 channels
    Channel layout                           : L R
    Sampling rate                            : 48.0 kHz
    Frame rate                               : 46.875 FPS (1024 SPF)
    Compression mode                         : Lossy
    Stream size                              : 52.7 MiB (3%)
    Language                                 : Vietnamese
    Default                                  : Yes
    Alternate group                          : 16

    Audio #16
    ID                                       : 18
    Format                                   : AAC LC
    Format/Info                              : Advanced Audio Codec Low Complexity
    Codec ID                                 : mp4a-40-2
    Duration                                 : 57 min 35 s
    Bit rate mode                            : Constant
    Bit rate                                 : 128 kb/s
    Channel(s)                               : 2 channels
    Channel layout                           : L R
    Sampling rate                            : 48.0 kHz
    Frame rate                               : 46.875 FPS (1024 SPF)
    Compression mode                         : Lossy
    Stream size                              : 52.7 MiB (3%)
    Language                                 : Turkish
    Default                                  : Yes
    Alternate group                          : 17

    Audio #17
    ID                                       : 19
    Format                                   : AAC LC
    Format/Info                              : Advanced Audio Codec Low Complexity
    Codec ID                                 : mp4a-40-2
    Duration                                 : 57 min 35 s
    Bit rate mode                            : Constant
    Bit rate                                 : 128 kb/s
    Channel(s)                               : 2 channels
    Channel layout                           : L R
    Sampling rate                            : 48.0 kHz
    Frame rate                               : 46.875 FPS (1024 SPF)
    Compression mode                         : Lossy
    Stream size                              : 52.7 MiB (3%)
    Language                                 : Czech
    Default                                  : Yes
    Alternate group                          : 18

    Audio #18
    ID                                       : 20
    Format                                   : AAC LC
    Format/Info                              : Advanced Audio Codec Low Complexity
    Codec ID                                 : mp4a-40-2
    Duration                                 : 57 min 35 s
    Bit rate mode                            : Constant
    Bit rate                                 : 128 kb/s
    Channel(s)                               : 2 channels
    Channel layout                           : L R
    Sampling rate                            : 48.0 kHz
    Frame rate                               : 46.875 FPS (1024 SPF)
    Compression mode                         : Lossy
    Stream size                              : 52.7 MiB (3%)
    Language                                 : Greek
    Default                                  : Yes
    Alternate group                          : 19

    Audio #19
    ID                                       : 21
    Format                                   : AAC LC
    Format/Info                              : Advanced Audio Codec Low Complexity
    Codec ID                                 : mp4a-40-2
    Duration                                 : 57 min 35 s
    Bit rate mode                            : Constant
    Bit rate                                 : 128 kb/s
    Channel(s)                               : 2 channels
    Channel layout                           : L R
    Sampling rate                            : 48.0 kHz
    Frame rate                               : 46.875 FPS (1024 SPF)
    Compression mode                         : Lossy
    Stream size                              : 52.7 MiB (3%)
    Language                                 : Hebrew
    Default                                  : Yes
    Alternate group                          : 20

    Audio #20
    ID                                       : 22
    Format                                   : AAC LC
    Format/Info                              : Advanced Audio Codec Low Complexity
    Codec ID                                 : mp4a-40-2
    Duration                                 : 57 min 35 s
    Bit rate mode                            : Constant
    Bit rate                                 : 128 kb/s
    Channel(s)                               : 2 channels
    Channel layout                           : L R
    Sampling rate                            : 48.0 kHz
    Frame rate                               : 46.875 FPS (1024 SPF)
    Compression mode                         : Lossy
    Stream size                              : 52.7 MiB (3%)
    Language                                 : Arabic
    Default                                  : Yes
    Alternate group                          : 21

    Audio #21
    ID                                       : 23
    Format                                   : AAC LC
    Format/Info                              : Advanced Audio Codec Low Complexity
    Codec ID                                 : mp4a-40-2
    Duration                                 : 57 min 35 s
    Bit rate mode                            : Constant
    Bit rate                                 : 128 kb/s
    Channel(s)                               : 2 channels
    Channel layout                           : L R
    Sampling rate                            : 48.0 kHz
    Frame rate                               : 46.875 FPS (1024 SPF)
    Compression mode                         : Lossy
    Stream size                              : 52.7 MiB (3%)
    Language                                 : Hindi
    Default                                  : Yes
    Alternate group                          : 22

    Audio #22
    ID                                       : 24
    Format                                   : AAC LC
    Format/Info                              : Advanced Audio Codec Low Complexity
    Codec ID                                 : mp4a-40-2
    Duration                                 : 57 min 35 s
    Bit rate mode                            : Constant
    Bit rate                                 : 128 kb/s
    Channel(s)                               : 2 channels
    Channel layout                           : L R
    Sampling rate                            : 48.0 kHz
    Frame rate                               : 46.875 FPS (1024 SPF)
    Compression mode                         : Lossy
    Stream size                              : 52.7 MiB (3%)
    Language                                 : Tamil
    Default                                  : Yes
    Alternate group                          : 23

    Audio #23
    ID                                       : 25
    Format                                   : AAC LC
    Format/Info                              : Advanced Audio Codec Low Complexity
    Codec ID                                 : mp4a-40-2
    Duration                                 : 57 min 35 s
    Bit rate mode                            : Constant
    Bit rate                                 : 128 kb/s
    Channel(s)                               : 2 channels
    Channel layout                           : L R
    Sampling rate                            : 48.0 kHz
    Frame rate                               : 46.875 FPS (1024 SPF)
    Compression mode                         : Lossy
    Stream size                              : 52.7 MiB (3%)
    Language                                 : Telugu
    Default                                  : Yes
    Alternate group                          : 24

    Audio #24
    ID                                       : 26
    Format                                   : AAC LC
    Format/Info                              : Advanced Audio Codec Low Complexity
    Codec ID                                 : mp4a-40-2
    Duration                                 : 57 min 35 s
    Bit rate mode                            : Constant
    Bit rate                                 : 128 kb/s
    Channel(s)                               : 2 channels
    Channel layout                           : L R
    Sampling rate                            : 48.0 kHz
    Frame rate                               : 46.875 FPS (1024 SPF)
    Compression mode                         : Lossy
    Stream size                              : 52.7 MiB (3%)
    Language                                 : Kannada
    Default                                  : Yes
    Alternate group                          : 25

    Audio #25
    ID                                       : 27
    Format                                   : AAC LC
    Format/Info                              : Advanced Audio Codec Low Complexity
    Codec ID                                 : mp4a-40-2
    Duration                                 : 57 min 35 s
    Bit rate mode                            : Constant
    Bit rate                                 : 128 kb/s
    Channel(s)                               : 2 channels
    Channel layout                           : L R
    Sampling rate                            : 48.0 kHz
    Frame rate                               : 46.875 FPS (1024 SPF)
    Compression mode                         : Lossy
    Stream size                              : 52.7 MiB (3%)
    Language                                 : Malayalam
    Default                                  : Yes
    Alternate group                          : 26

    Audio #26
    ID                                       : 28
    Format                                   : AAC LC
    Format/Info                              : Advanced Audio Codec Low Complexity
    Codec ID                                 : mp4a-40-2
    Duration                                 : 57 min 35 s
    Bit rate mode                            : Constant
    Bit rate                                 : 128 kb/s
    Channel(s)                               : 2 channels
    Channel layout                           : L R
    Sampling rate                            : 48.0 kHz
    Frame rate                               : 46.875 FPS (1024 SPF)
    Compression mode                         : Lossy
    Stream size                              : 52.7 MiB (3%)
    Language                                 : Thai
    Default                                  : Yes
    Alternate group                          : 27

    Audio #27
    ID                                       : 29
    Format                                   : AAC LC
    Format/Info                              : Advanced Audio Codec Low Complexity
    Codec ID                                 : mp4a-40-2
    Duration                                 : 57 min 35 s
    Bit rate mode                            : Constant
    Bit rate                                 : 128 kb/s
    Channel(s)                               : 2 channels
    Channel layout                           : L R
    Sampling rate                            : 48.0 kHz
    Frame rate                               : 46.875 FPS (1024 SPF)
    Compression mode                         : Lossy
    Stream size                              : 52.7 MiB (3%)
    Language                                 : Japanese
    Default                                  : Yes
    Alternate group                          : 28

    Text #1
    ID                                       : 30
    Format                                   : Timed Text
    Muxing mode                              : sbtl
    Codec ID                                 : tx3g
    Duration                                 : 54 min 31 s
    Bit rate mode                            : Variable
    Bit rate                                 : 0 b/s
    Frame rate                               : 0.006 FPS
    Stream size                              : 215 Bytes (0%)
    Language                                 : Malay
    Default                                  : No
    Forced                                   : No
    Alternate group                          : 29

    Text #2
    ID                                       : 31
    Format                                   : Timed Text
    Muxing mode                              : sbtl
    Codec ID                                 : tx3g
    Duration                                 : 54 min 31 s
    Bit rate mode                            : Variable
    Bit rate                                 : 0 b/s
    Frame rate                               : 0.006 FPS
    Stream size                              : 187 Bytes (0%)
    Language                                 : Catalan
    Default                                  : No
    Forced                                   : No
    Alternate group                          : 30

    Text #3
    ID                                       : 32
    Format                                   : Timed Text
    Muxing mode                              : sbtl
    Codec ID                                 : tx3g
    Duration                                 : 54 min 31 s
    Bit rate mode                            : Variable
    Bit rate                                 : 0 b/s
    Frame rate                               : 0.006 FPS
    Stream size                              : 211 Bytes (0%)
    Language                                 : German
    Default                                  : No
    Forced                                   : No
    Alternate group                          : 31

    Text #4
    ID                                       : 33
    Format                                   : Timed Text
    Muxing mode                              : sbtl
    Codec ID                                 : tx3g
    Duration                                 : 54 min 31 s
    Bit rate mode                            : Variable
    Bit rate                                 : 0 b/s
    Frame rate                               : 0.006 FPS
    Stream size                              : 200 Bytes (0%)
    Language                                 : Spanish
    Default                                  : No
    Forced                                   : No
    Alternate group                          : 32

    Text #5
    ID                                       : 34
    Format                                   : Timed Text
    Muxing mode                              : sbtl
    Codec ID                                 : tx3g
    Duration                                 : 54 min 31 s
    Bit rate mode                            : Variable
    Bit rate                                 : 0 b/s
    Frame rate                               : 0.006 FPS
    Stream size                              : 220 Bytes (0%)
    Language                                 : Spanish
    Default                                  : No
    Forced                                   : No
    Alternate group                          : 33

    Text #6
    ID                                       : 35
    Format                                   : Timed Text
    Muxing mode                              : sbtl
    Codec ID                                 : tx3g
    Duration                                 : 54 min 31 s
    Bit rate mode                            : Variable
    Bit rate                                 : 0 b/s
    Frame rate                               : 0.005 FPS
    Stream size                              : 175 Bytes (0%)
    Default                                  : No
    Forced                                   : No
    Alternate group                          : 34

    Text #7
    ID                                       : 36
    Format                                   : Timed Text
    Muxing mode                              : sbtl
    Codec ID                                 : tx3g
    Duration                                 : 54 min 31 s
    Bit rate mode                            : Variable
    Bit rate                                 : 0 b/s
    Frame rate                               : 0.006 FPS
    Stream size                              : 243 Bytes (0%)
    Language                                 : French
    Default                                  : No
    Forced                                   : No
    Alternate group                          : 35

    Text #8
    ID                                       : 37
    Format                                   : Timed Text
    Muxing mode                              : sbtl
    Codec ID                                 : tx3g
    Duration                                 : 54 min 31 s
    Bit rate mode                            : Variable
    Bit rate                                 : 1 b/s
    Frame rate                               : 0.006 FPS
    Stream size                              : 266 Bytes (0%)
    Language                                 : French
    Default                                  : No
    Forced                                   : No
    Alternate group                          : 36

    Text #9
    ID                                       : 38
    Format                                   : Timed Text
    Muxing mode                              : sbtl
    Codec ID                                 : tx3g
    Duration                                 : 54 min 31 s
    Bit rate mode                            : Variable
    Bit rate                                 : 0 b/s
    Frame rate                               : 0.006 FPS
    Stream size                              : 206 Bytes (0%)
    Language                                 : Indonesian
    Default                                  : No
    Forced                                   : No
    Alternate group                          : 37

    Text #10
    ID                                       : 39
    Format                                   : Timed Text
    Muxing mode                              : sbtl
    Codec ID                                 : tx3g
    Duration                                 : 54 min 31 s
    Bit rate mode                            : Variable
    Bit rate                                 : 0 b/s
    Frame rate                               : 0.006 FPS
    Stream size                              : 190 Bytes (0%)
    Language                                 : Italian
    Default                                  : No
    Forced                                   : No
    Alternate group                          : 38

    Text #11
    ID                                       : 40
    Format                                   : Timed Text
    Muxing mode                              : sbtl
    Codec ID                                 : tx3g
    Duration                                 : 54 min 31 s
    Bit rate mode                            : Variable
    Bit rate                                 : 0 b/s
    Frame rate                               : 0.006 FPS
    Stream size                              : 204 Bytes (0%)
    Language                                 : Hungarian
    Default                                  : No
    Forced                                   : No
    Alternate group                          : 39

    Text #12
    ID                                       : 41
    Format                                   : Timed Text
    Muxing mode                              : sbtl
    Codec ID                                 : tx3g
    Duration                                 : 54 min 31 s
    Bit rate mode                            : Variable
    Bit rate                                 : 0 b/s
    Frame rate                               : 0.006 FPS
    Stream size                              : 205 Bytes (0%)
    Language                                 : Dutch
    Default                                  : No
    Forced                                   : No
    Alternate group                          : 40

    Text #13
    ID                                       : 42
    Format                                   : Timed Text
    Muxing mode                              : sbtl
    Codec ID                                 : tx3g
    Duration                                 : 21 min 6 s
    Bit rate mode                            : Variable
    Bit rate                                 : 1 b/s
    Frame rate                               : 0.007 FPS
    Stream size                              : 100 Bytes (0%)
    Language                                 : Polish
    Default                                  : No
    Forced                                   : No
    Alternate group                          : 41

    Text #14
    ID                                       : 43
    Format                                   : Timed Text
    Muxing mode                              : sbtl
    Codec ID                                 : tx3g
    Duration                                 : 54 min 31 s
    Bit rate mode                            : Variable
    Bit rate                                 : 0 b/s
    Frame rate                               : 0.006 FPS
    Stream size                              : 225 Bytes (0%)
    Language                                 : Portuguese
    Default                                  : No
    Forced                                   : No
    Alternate group                          : 42

    Text #15
    ID                                       : 44
    Format                                   : Timed Text
    Muxing mode                              : sbtl
    Codec ID                                 : tx3g
    Duration                                 : 54 min 31 s
    Bit rate mode                            : Variable
    Bit rate                                 : 0 b/s
    Frame rate                               : 0.006 FPS
    Stream size                              : 238 Bytes (0%)
    Language                                 : Portuguese
    Default                                  : No
    Forced                                   : No
    Alternate group                          : 43

    Text #16
    ID                                       : 45
    Format                                   : Timed Text
    Muxing mode                              : sbtl
    Codec ID                                 : tx3g
    Duration                                 : 54 min 31 s
    Bit rate mode                            : Variable
    Bit rate                                 : 0 b/s
    Frame rate                               : 0.006 FPS
    Stream size                              : 218 Bytes (0%)
    Language                                 : Romanian
    Default                                  : No
    Forced                                   : No
    Alternate group                          : 44

    Text #17
    ID                                       : 46
    Format                                   : Timed Text
    Muxing mode                              : sbtl
    Codec ID                                 : tx3g
    Duration                                 : 54 min 31 s
    Bit rate mode                            : Variable
    Bit rate                                 : 1 b/s
    Frame rate                               : 0.006 FPS
    Stream size                              : 265 Bytes (0%)
    Language                                 : Vietnamese
    Default                                  : No
    Forced                                   : No
    Alternate group                          : 45

    Text #18
    ID                                       : 47
    Format                                   : Timed Text
    Muxing mode                              : sbtl
    Codec ID                                 : tx3g
    Duration                                 : 54 min 31 s
    Bit rate mode                            : Variable
    Bit rate                                 : 0 b/s
    Frame rate                               : 0.006 FPS
    Stream size                              : 226 Bytes (0%)
    Language                                 : Turkish
    Default                                  : No
    Forced                                   : No
    Alternate group                          : 46

    Text #19
    ID                                       : 48
    Format                                   : Timed Text
    Muxing mode                              : sbtl
    Codec ID                                 : tx3g
    Duration                                 : 54 min 31 s
    Bit rate mode                            : Variable
    Bit rate                                 : 0 b/s
    Frame rate                               : 0.006 FPS
    Stream size                              : 222 Bytes (0%)
    Language                                 : Czech
    Default                                  : Yes
    Forced                                   : No
    Alternate group                          : 47

    Text #20
    ID                                       : 49
    Format                                   : Timed Text
    Muxing mode                              : sbtl
    Codec ID                                 : tx3g
    Duration                                 : 54 min 31 s
    Bit rate mode                            : Variable
    Bit rate                                 : 1 b/s
    Frame rate                               : 0.006 FPS
    Stream size                              : 420 Bytes (0%)
    Language                                 : Greek
    Default                                  : No
    Forced                                   : No
    Alternate group                          : 48

    Text #21
    ID                                       : 50
    Format                                   : Timed Text
    Muxing mode                              : sbtl
    Codec ID                                 : tx3g
    Duration                                 : 54 min 31 s
    Bit rate mode                            : Variable
    Bit rate                                 : 1 b/s
    Frame rate                               : 0.006 FPS
    Stream size                              : 363 Bytes (0%)
    Language                                 : Hebrew
    Default                                  : No
    Forced                                   : No
    Alternate group                          : 49

    Text #22
    ID                                       : 51
    Format                                   : Timed Text
    Muxing mode                              : sbtl
    Codec ID                                 : tx3g
    Duration                                 : 54 min 31 s
    Bit rate mode                            : Variable
    Bit rate                                 : 1 b/s
    Frame rate                               : 0.006 FPS
    Stream size                              : 364 Bytes (0%)
    Language                                 : Arabic
    Default                                  : No
    Forced                                   : No
    Alternate group                          : 50

    Text #23
    ID                                       : 52
    Format                                   : Timed Text
    Muxing mode                              : sbtl
    Codec ID                                 : tx3g
    Duration                                 : 54 min 31 s
    Bit rate mode                            : Variable
    Bit rate                                 : 1 b/s
    Frame rate                               : 0.006 FPS
    Stream size                              : 433 Bytes (0%)
    Language                                 : Hindi
    Default                                  : No
    Forced                                   : No
    Alternate group                          : 51

    Text #24
    ID                                       : 53
    Format                                   : Timed Text
    Muxing mode                              : sbtl
    Codec ID                                 : tx3g
    Duration                                 : 54 min 31 s
    Bit rate mode                            : Variable
    Bit rate                                 : 1 b/s
    Frame rate                               : 0.006 FPS
    Stream size                              : 576 Bytes (0%)
    Language                                 : Tamil
    Default                                  : No
    Forced                                   : No
    Alternate group                          : 52

    Text #25
    ID                                       : 54
    Format                                   : Timed Text
    Muxing mode                              : sbtl
    Codec ID                                 : tx3g
    Duration                                 : 54 min 31 s
    Bit rate mode                            : Variable
    Bit rate                                 : 1 b/s
    Frame rate                               : 0.006 FPS
    Stream size                              : 558 Bytes (0%)
    Language                                 : Telugu
    Default                                  : No
    Forced                                   : No
    Alternate group                          : 53

    Text #26
    ID                                       : 55
    Format                                   : Timed Text
    Muxing mode                              : sbtl
    Codec ID                                 : tx3g
    Duration                                 : 54 min 31 s
    Bit rate mode                            : Variable
    Bit rate                                 : 1 b/s
    Frame rate                               : 0.006 FPS
    Stream size                              : 509 Bytes (0%)
    Language                                 : Kannada
    Default                                  : No
    Forced                                   : No
    Alternate group                          : 54

    Text #27
    ID                                       : 56
    Format                                   : Timed Text
    Muxing mode                              : sbtl
    Codec ID                                 : tx3g
    Duration                                 : 54 min 31 s
    Bit rate mode                            : Variable
    Bit rate                                 : 1 b/s
    Frame rate                               : 0.006 FPS
    Stream size                              : 527 Bytes (0%)
    Language                                 : Malayalam
    Default                                  : No
    Forced                                   : No
    Alternate group                          : 55

    Text #28
    ID                                       : 57
    Format                                   : Timed Text
    Muxing mode                              : sbtl
    Codec ID                                 : tx3g
    Duration                                 : 54 min 31 s
    Bit rate mode                            : Variable
    Bit rate                                 : 1 b/s
    Frame rate                               : 0.006 FPS
    Stream size                              : 551 Bytes (0%)
    Language                                 : Thai
    Default                                  : No
    Forced                                   : No
    Alternate group                          : 56

    Text #29
    ID                                       : 58
    Format                                   : Timed Text
    Muxing mode                              : sbtl
    Codec ID                                 : tx3g
    Duration                                 : 54 min 31 s
    Bit rate mode                            : Variable
    Bit rate                                 : 1 b/s
    Frame rate                               : 0.006 FPS
    Stream size                              : 278 Bytes (0%)
    Language                                 : Japanese
    Default                                  : No
    Forced                                   : No
    Alternate group                          : 57

    Text #30
    ID                                       : 59
    Format                                   : Timed Text
    Muxing mode                              : sbtl
    Codec ID                                 : tx3g
    Duration                                 : 54 min 38 s
    Bit rate mode                            : Variable
    Bit rate                                 : 47 b/s
    Frame rate                               : 0.372 FPS
    Stream size                              : 19.0 KiB (0%)
    Language                                 : Malay
    Default                                  : No
    Forced                                   : No
    Alternate group                          : 58

    Text #31
    ID                                       : 60
    Format                                   : Timed Text
    Muxing mode                              : sbtl
    Codec ID                                 : tx3g
    Duration                                 : 54 min 38 s
    Bit rate mode                            : Variable
    Bit rate                                 : 49 b/s
    Frame rate                               : 0.372 FPS
    Stream size                              : 19.5 KiB (0%)
    Language                                 : Catalan
    Default                                  : No
    Forced                                   : No
    Alternate group                          : 59

    Text #32
    ID                                       : 61
    Format                                   : Timed Text
    Muxing mode                              : sbtl
    Codec ID                                 : tx3g
    Duration                                 : 54 min 38 s
    Bit rate mode                            : Variable
    Bit rate                                 : 47 b/s
    Frame rate                               : 0.372 FPS
    Stream size                              : 18.9 KiB (0%)
    Language                                 : Danish
    Default                                  : No
    Forced                                   : No
    Alternate group                          : 60











    + Pridaj vlastnu verziu tohto torrentu +


    Upozornenie:
    Ziadny zo zobrazených súborov sa nenachádza na tomto serveri. Server slúzi len k síreniu vlastnorucne vytvorených aplikácií, videí, hudby ai. Autori stránok nenesú ziadnu zodpovednost za zverejnené odkazy, komentáre a obsah súborov. Vsetky komentáre, odkazy, súbory ktoré by svojou povahou mohli byt v rozpore zo zákonmi sem vkladáte na vlastnú zodpovednost. Autori stránok si vyhradzujú právo cenzúry odkazov, komentárov príp. súborov, ktoré by svojou povahou mohli byt v rozpore zo zákonmi a dobrými mravmi. Dodrzujte pravidlá!


    No comments...


    Back

    Na serveru se nenalézají zádne soubory. Za odkazy jsou výhradně zodpovědní uzivatelé a návstěvníci tohoto trackeru. Administrátor není zodpovědný za pridaný obsah ani za skody zpusobené uzivateli. Nesmíte pouzívat tuto webovou stránku pro distribuovaní nebo download zádného materiálu pokud nemáte povolení od príslusného vlastníka práv. Uzivatelé jsou zodpovědní za dodrzování těchto pravidel a podmínek. Owner má právo kdykoliv změnit pravidla tohoto trackeru.

    [ Script trval: 0.097 sec. ] - [ GZIP: enabled ]
    Je zhruba 19:02
    memcache

    TOPlist