Tvoj účet nieje VIP.
Preto sú tvoje funkcie a možnosti značne obmedzené.
Pre aktiváciu VIP klikni sem.

The Peripheral / Medium (S01E08)(2022)(WebDl)(FHD)(1080p)(x264)(AC3 5.1 - Multi 27 lang)(MultiSub) = CSFD 79% | SkTorrent.eu

Cz-SkTorrent open Tracker, na volné zdieľanie súborov. Pridajte sa k našej komunite a získajte prístup k tisícom torrentov.

  • vysoká rýchlosť
  • úplne zdarma
  • prevažne Slovenská a Česká scéna
  • ste tu s nami už 10 rokov - Ďakujeme
  • Vitaj Guest (Login) Ako stahovat
    torrenty?
    Torrenty:
    v1 textová
    v2 obrázková
    Ako sa stat
    Uploaderom
    Online
    Filmy
    Forum
    Pravidlá
    SkTSocial
    BitTorrent
    klient
    Meno: Heslo:
    Zaregistrovat
    Po zaregistrovaní mozte volne stahovat
    Zabudol som heslo

    The Peripheral  / Medium (S01E08)(2022)(WebDl)(FHD)(1080p)(x264)(AC3 5.1 - Multi 27 lang)(MultiSub) = CSFD 79% Názov:The Peripheral / Medium (S01E08)(2022)(WebDl)(FHD)(1080p)(x264)(AC3 5.1 - Multi 27 lang)(MultiSub) = CSFD 79% Hodnocení:N/A Stiahnut
    Pozriet Online
    Kategória:Seriál - cz,de,eng,hu,pl Velikost:7.8 GB BitTorrent klient
    Pridaný: Súbory:
    Skontrolován:2022-12-05 Peerov:2 (Seed: 1, Leech: 1)
    Zaner:Akcni,Drama,Sci-Fi,Thriller Uploader:Uvidis, az ked budes
    VIP
    Kúp nám Pivo 1,10€

    Kúp nám Pivo

    Pridaj do zalozky
    Pridaj do zalozky






    [center]





    Movie Name: The Peripheral S01E08 (2022)
    IMDb Rating: 8.5/10

    Quality: 1080p (WebDL)
    Language: EAC 5.1 - Germany, English , Spanish, Italian , Portuguese , French , Polish , Czech , Japanese , Hindi , Turkish , Tamil , Catalan , Indonesian , Hungarian , Dutch , Romanian , Vietnamese , Greek , Hebrew , Arabic , Kannada , Malayalam , Thai
    Subtitles: Multi 32+
    Director: Alrick Riley, Vincenzo Natali
    Writers: Scott B. Smith
    Genres: Thiller | Drama | Sci-fi |


    Set in the future when technology has subtly altered society, a woman discovers a secret connection to an alternate reality as well as a dark future of her own.




    [/center]

    Format                                   : Matroska
    Format version                           : Version 4
    File size                                : 7.79 GiB
    Duration                                 : 57 min 35 s
    Overall bit rate                         : 19.4 Mb/s
    Movie name                               : Stvoření tisíců lesů
    Encoded date                             : UTC 2022-12-04 07:03:03
    Writing application                      : mkvmerge v68.0.0 ('The Curtain') 64-bit
    Writing library                          : libebml v1.4.2 + libmatroska v1.6.4

    Video
    ID                                       : 1
    Format                                   : AVC
    Format/Info                              : Advanced Video Codec
    Format profile                           : High@L4
    Format settings                          : CABAC / 4 Ref Frames
    Format settings, CABAC                   : Yes
    Format settings, Reference frames        : 4 frames
    Codec ID                                 : V_MPEG4/ISO/AVC
    Duration                                 : 57 min 35 s
    Bit rate                                 : 2 067 kb/s
    Width                                    : 1 920 pixels
    Height                                   : 960 pixels
    Display aspect ratio                     : 2.000
    Frame rate mode                          : Constant
    Frame rate                               : 24.000 FPS
    Color space                              : YUV
    Chroma subsampling                       : 4:2:0
    Bit depth                                : 8 bits
    Scan type                                : Progressive
    Bits/(Pixel*Frame)                       : 0.047
    Stream size                              : 852 MiB (11%)
    Default                                  : Yes
    Forced                                   : No
    Color range                              : Limited
    Color primaries                          : BT.709
    Transfer characteristics                 : BT.709
    Matrix coefficients                      : BT.709

    Audio #1
    ID                                       : 2
    Format                                   : E-AC-3
    Format/Info                              : Enhanced AC-3
    Commercial name                          : Dolby Digital Plus
    Codec ID                                 : A_EAC3
    Duration                                 : 57 min 35 s
    Bit rate mode                            : Constant
    Bit rate                                 : 640 kb/s
    Channel(s)                               : 6 channels
    Channel layout                           : L R C LFE Ls Rs
    Sampling rate                            : 48.0 kHz
    Frame rate                               : 31.250 FPS (1536 SPF)
    Compression mode                         : Lossy
    Stream size                              : 264 MiB (3%)
    Language                                 : Malay
    Service kind                             : Complete Main
    Default                                  : Yes
    Forced                                   : No

    Audio #2
    ID                                       : 3
    Format                                   : E-AC-3
    Format/Info                              : Enhanced AC-3
    Commercial name                          : Dolby Digital Plus
    Codec ID                                 : A_EAC3
    Duration                                 : 57 min 35 s
    Bit rate mode                            : Constant
    Bit rate                                 : 640 kb/s
    Channel(s)                               : 6 channels
    Channel layout                           : L R C LFE Ls Rs
    Sampling rate                            : 48.0 kHz
    Frame rate                               : 31.250 FPS (1536 SPF)
    Compression mode                         : Lossy
    Stream size                              : 264 MiB (3%)
    Language                                 : Catalan
    Service kind                             : Complete Main
    Default                                  : No
    Forced                                   : No

    Audio #3
    ID                                       : 4
    Format                                   : E-AC-3
    Format/Info                              : Enhanced AC-3
    Commercial name                          : Dolby Digital Plus
    Codec ID                                 : A_EAC3
    Duration                                 : 57 min 35 s
    Bit rate mode                            : Constant
    Bit rate                                 : 640 kb/s
    Channel(s)                               : 6 channels
    Channel layout                           : L R C LFE Ls Rs
    Sampling rate                            : 48.0 kHz
    Frame rate                               : 31.250 FPS (1536 SPF)
    Compression mode                         : Lossy
    Stream size                              : 264 MiB (3%)
    Language                                 : German
    Service kind                             : Complete Main
    Default                                  : No
    Forced                                   : No

    Audio #4
    ID                                       : 5
    Format                                   : E-AC-3
    Format/Info                              : Enhanced AC-3
    Commercial name                          : Dolby Digital Plus
    Codec ID                                 : A_EAC3
    Duration                                 : 57 min 35 s
    Bit rate mode                            : Constant
    Bit rate                                 : 640 kb/s
    Channel(s)                               : 6 channels
    Channel layout                           : L R C LFE Ls Rs
    Sampling rate                            : 48.0 kHz
    Frame rate                               : 31.250 FPS (1536 SPF)
    Compression mode                         : Lossy
    Stream size                              : 264 MiB (3%)
    Language                                 : English
    Service kind                             : Complete Main
    Default                                  : No
    Forced                                   : No

    Audio #5
    ID                                       : 6
    Format                                   : E-AC-3
    Format/Info                              : Enhanced AC-3
    Commercial name                          : Dolby Digital Plus
    Codec ID                                 : A_EAC3
    Duration                                 : 57 min 35 s
    Bit rate mode                            : Constant
    Bit rate                                 : 640 kb/s
    Channel(s)                               : 6 channels
    Channel layout                           : L R C LFE Ls Rs
    Sampling rate                            : 48.0 kHz
    Frame rate                               : 31.250 FPS (1536 SPF)
    Compression mode                         : Lossy
    Stream size                              : 264 MiB (3%)
    Language                                 : Spanish
    Service kind                             : Complete Main
    Default                                  : No
    Forced                                   : No

    Audio #6
    ID                                       : 7
    Format                                   : E-AC-3
    Format/Info                              : Enhanced AC-3
    Commercial name                          : Dolby Digital Plus
    Codec ID                                 : A_EAC3
    Duration                                 : 57 min 35 s
    Bit rate mode                            : Constant
    Bit rate                                 : 640 kb/s
    Channel(s)                               : 6 channels
    Channel layout                           : L R C LFE Ls Rs
    Sampling rate                            : 48.0 kHz
    Frame rate                               : 31.250 FPS (1536 SPF)
    Compression mode                         : Lossy
    Stream size                              : 264 MiB (3%)
    Language                                 : fil
    Service kind                             : Complete Main
    Default                                  : No
    Forced                                   : No

    Audio #7
    ID                                       : 8
    Format                                   : E-AC-3
    Format/Info                              : Enhanced AC-3
    Commercial name                          : Dolby Digital Plus
    Codec ID                                 : A_EAC3
    Duration                                 : 57 min 35 s
    Bit rate mode                            : Constant
    Bit rate                                 : 640 kb/s
    Channel(s)                               : 6 channels
    Channel layout                           : L R C LFE Ls Rs
    Sampling rate                            : 48.0 kHz
    Frame rate                               : 31.250 FPS (1536 SPF)
    Compression mode                         : Lossy
    Stream size                              : 264 MiB (3%)
    Language                                 : French
    Service kind                             : Complete Main
    Default                                  : No
    Forced                                   : No

    Audio #8
    ID                                       : 9
    Format                                   : E-AC-3
    Format/Info                              : Enhanced AC-3
    Commercial name                          : Dolby Digital Plus
    Codec ID                                 : A_EAC3
    Duration                                 : 57 min 35 s
    Bit rate mode                            : Constant
    Bit rate                                 : 640 kb/s
    Channel(s)                               : 6 channels
    Channel layout                           : L R C LFE Ls Rs
    Sampling rate                            : 48.0 kHz
    Frame rate                               : 31.250 FPS (1536 SPF)
    Compression mode                         : Lossy
    Stream size                              : 264 MiB (3%)
    Language                                 : Indonesian
    Service kind                             : Complete Main
    Default                                  : No
    Forced                                   : No

    Audio #9
    ID                                       : 10
    Format                                   : E-AC-3
    Format/Info                              : Enhanced AC-3
    Commercial name                          : Dolby Digital Plus
    Codec ID                                 : A_EAC3
    Duration                                 : 57 min 35 s
    Bit rate mode                            : Constant
    Bit rate                                 : 640 kb/s
    Channel(s)                               : 6 channels
    Channel layout                           : L R C LFE Ls Rs
    Sampling rate                            : 48.0 kHz
    Frame rate                               : 31.250 FPS (1536 SPF)
    Compression mode                         : Lossy
    Stream size                              : 264 MiB (3%)
    Language                                 : Italian
    Service kind                             : Complete Main
    Default                                  : No
    Forced                                   : No

    Audio #10
    ID                                       : 11
    Format                                   : E-AC-3
    Format/Info                              : Enhanced AC-3
    Commercial name                          : Dolby Digital Plus
    Codec ID                                 : A_EAC3
    Duration                                 : 57 min 35 s
    Bit rate mode                            : Constant
    Bit rate                                 : 640 kb/s
    Channel(s)                               : 6 channels
    Channel layout                           : L R C LFE Ls Rs
    Sampling rate                            : 48.0 kHz
    Frame rate                               : 31.250 FPS (1536 SPF)
    Compression mode                         : Lossy
    Stream size                              : 264 MiB (3%)
    Language                                 : Hungarian
    Service kind                             : Complete Main
    Default                                  : No
    Forced                                   : No

    Audio #11
    ID                                       : 12
    Format                                   : E-AC-3
    Format/Info                              : Enhanced AC-3
    Commercial name                          : Dolby Digital Plus
    Codec ID                                 : A_EAC3
    Duration                                 : 57 min 35 s
    Bit rate mode                            : Constant
    Bit rate                                 : 640 kb/s
    Channel(s)                               : 6 channels
    Channel layout                           : L R C LFE Ls Rs
    Sampling rate                            : 48.0 kHz
    Frame rate                               : 31.250 FPS (1536 SPF)
    Compression mode                         : Lossy
    Stream size                              : 264 MiB (3%)
    Language                                 : Dutch
    Service kind                             : Complete Main
    Default                                  : No
    Forced                                   : No

    Audio #12
    ID                                       : 13
    Format                                   : E-AC-3
    Format/Info                              : Enhanced AC-3
    Commercial name                          : Dolby Digital Plus
    Codec ID                                 : A_EAC3
    Duration                                 : 57 min 35 s
    Bit rate mode                            : Constant
    Bit rate                                 : 640 kb/s
    Channel(s)                               : 6 channels
    Channel layout                           : L R C LFE Ls Rs
    Sampling rate                            : 48.0 kHz
    Frame rate                               : 31.250 FPS (1536 SPF)
    Compression mode                         : Lossy
    Stream size                              : 264 MiB (3%)
    Language                                 : Polish
    Service kind                             : Complete Main
    Default                                  : No
    Forced                                   : No

    Audio #13
    ID                                       : 14
    Format                                   : E-AC-3
    Format/Info                              : Enhanced AC-3
    Commercial name                          : Dolby Digital Plus
    Codec ID                                 : A_EAC3
    Duration                                 : 57 min 35 s
    Bit rate mode                            : Constant
    Bit rate                                 : 640 kb/s
    Channel(s)                               : 6 channels
    Channel layout                           : L R C LFE Ls Rs
    Sampling rate                            : 48.0 kHz
    Frame rate                               : 31.250 FPS (1536 SPF)
    Compression mode                         : Lossy
    Stream size                              : 264 MiB (3%)
    Language                                 : Portuguese
    Service kind                             : Complete Main
    Default                                  : No
    Forced                                   : No

    Audio #14
    ID                                       : 15
    Format                                   : E-AC-3
    Format/Info                              : Enhanced AC-3
    Commercial name                          : Dolby Digital Plus
    Codec ID                                 : A_EAC3
    Duration                                 : 57 min 35 s
    Bit rate mode                            : Constant
    Bit rate                                 : 640 kb/s
    Channel(s)                               : 6 channels
    Channel layout                           : L R C LFE Ls Rs
    Sampling rate                            : 48.0 kHz
    Frame rate                               : 31.250 FPS (1536 SPF)
    Compression mode                         : Lossy
    Stream size                              : 264 MiB (3%)
    Language                                 : Romanian
    Service kind                             : Complete Main
    Default                                  : No
    Forced                                   : No

    Audio #15
    ID                                       : 16
    Format                                   : E-AC-3
    Format/Info                              : Enhanced AC-3
    Commercial name                          : Dolby Digital Plus
    Codec ID                                 : A_EAC3
    Duration                                 : 57 min 35 s
    Bit rate mode                            : Constant
    Bit rate                                 : 640 kb/s
    Channel(s)                               : 6 channels
    Channel layout                           : L R C LFE Ls Rs
    Sampling rate                            : 48.0 kHz
    Frame rate                               : 31.250 FPS (1536 SPF)
    Compression mode                         : Lossy
    Stream size                              : 264 MiB (3%)
    Language                                 : Vietnamese
    Service kind                             : Complete Main
    Default                                  : No
    Forced                                   : No

    Audio #16
    ID                                       : 17
    Format                                   : E-AC-3
    Format/Info                              : Enhanced AC-3
    Commercial name                          : Dolby Digital Plus
    Codec ID                                 : A_EAC3
    Duration                                 : 57 min 35 s
    Bit rate mode                            : Constant
    Bit rate                                 : 640 kb/s
    Channel(s)                               : 6 channels
    Channel layout                           : L R C LFE Ls Rs
    Sampling rate                            : 48.0 kHz
    Frame rate                               : 31.250 FPS (1536 SPF)
    Compression mode                         : Lossy
    Stream size                              : 264 MiB (3%)
    Language                                 : Turkish
    Service kind                             : Complete Main
    Default                                  : No
    Forced                                   : No

    Audio #17
    ID                                       : 18
    Format                                   : E-AC-3
    Format/Info                              : Enhanced AC-3
    Commercial name                          : Dolby Digital Plus
    Codec ID                                 : A_EAC3
    Duration                                 : 57 min 35 s
    Bit rate mode                            : Constant
    Bit rate                                 : 640 kb/s
    Channel(s)                               : 6 channels
    Channel layout                           : L R C LFE Ls Rs
    Sampling rate                            : 48.0 kHz
    Frame rate                               : 31.250 FPS (1536 SPF)
    Compression mode                         : Lossy
    Stream size                              : 264 MiB (3%)
    Language                                 : Czech
    Service kind                             : Complete Main
    Default                                  : No
    Forced                                   : No

    Audio #18
    ID                                       : 19
    Format                                   : E-AC-3
    Format/Info                              : Enhanced AC-3
    Commercial name                          : Dolby Digital Plus
    Codec ID                                 : A_EAC3
    Duration                                 : 57 min 35 s
    Bit rate mode                            : Constant
    Bit rate                                 : 640 kb/s
    Channel(s)                               : 6 channels
    Channel layout                           : L R C LFE Ls Rs
    Sampling rate                            : 48.0 kHz
    Frame rate                               : 31.250 FPS (1536 SPF)
    Compression mode                         : Lossy
    Stream size                              : 264 MiB (3%)
    Language                                 : Greek
    Service kind                             : Complete Main
    Default                                  : No
    Forced                                   : No

    Audio #19
    ID                                       : 20
    Format                                   : E-AC-3
    Format/Info                              : Enhanced AC-3
    Commercial name                          : Dolby Digital Plus
    Codec ID                                 : A_EAC3
    Duration                                 : 57 min 35 s
    Bit rate mode                            : Constant
    Bit rate                                 : 640 kb/s
    Channel(s)                               : 6 channels
    Channel layout                           : L R C LFE Ls Rs
    Sampling rate                            : 48.0 kHz
    Frame rate                               : 31.250 FPS (1536 SPF)
    Compression mode                         : Lossy
    Stream size                              : 264 MiB (3%)
    Language                                 : Hebrew
    Service kind                             : Complete Main
    Default                                  : No
    Forced                                   : No

    Audio #20
    ID                                       : 21
    Format                                   : E-AC-3
    Format/Info                              : Enhanced AC-3
    Commercial name                          : Dolby Digital Plus
    Codec ID                                 : A_EAC3
    Duration                                 : 57 min 35 s
    Bit rate mode                            : Constant
    Bit rate                                 : 640 kb/s
    Channel(s)                               : 6 channels
    Channel layout                           : L R C LFE Ls Rs
    Sampling rate                            : 48.0 kHz
    Frame rate                               : 31.250 FPS (1536 SPF)
    Compression mode                         : Lossy
    Stream size                              : 264 MiB (3%)
    Language                                 : Arabic
    Service kind                             : Complete Main
    Default                                  : No
    Forced                                   : No

    Audio #21
    ID                                       : 22
    Format                                   : E-AC-3
    Format/Info                              : Enhanced AC-3
    Commercial name                          : Dolby Digital Plus
    Codec ID                                 : A_EAC3
    Duration                                 : 57 min 35 s
    Bit rate mode                            : Constant
    Bit rate                                 : 640 kb/s
    Channel(s)                               : 6 channels
    Channel layout                           : L R C LFE Ls Rs
    Sampling rate                            : 48.0 kHz
    Frame rate                               : 31.250 FPS (1536 SPF)
    Compression mode                         : Lossy
    Stream size                              : 264 MiB (3%)
    Language                                 : Hindi
    Service kind                             : Complete Main
    Default                                  : No
    Forced                                   : No

    Audio #22
    ID                                       : 23
    Format                                   : E-AC-3
    Format/Info                              : Enhanced AC-3
    Commercial name                          : Dolby Digital Plus
    Codec ID                                 : A_EAC3
    Duration                                 : 57 min 35 s
    Bit rate mode                            : Constant
    Bit rate                                 : 640 kb/s
    Channel(s)                               : 6 channels
    Channel layout                           : L R C LFE Ls Rs
    Sampling rate                            : 48.0 kHz
    Frame rate                               : 31.250 FPS (1536 SPF)
    Compression mode                         : Lossy
    Stream size                              : 264 MiB (3%)
    Language                                 : Tamil
    Service kind                             : Complete Main
    Default                                  : No
    Forced                                   : No

    Audio #23
    ID                                       : 24
    Format                                   : E-AC-3
    Format/Info                              : Enhanced AC-3
    Commercial name                          : Dolby Digital Plus
    Codec ID                                 : A_EAC3
    Duration                                 : 57 min 35 s
    Bit rate mode                            : Constant
    Bit rate                                 : 640 kb/s
    Channel(s)                               : 6 channels
    Channel layout                           : L R C LFE Ls Rs
    Sampling rate                            : 48.0 kHz
    Frame rate                               : 31.250 FPS (1536 SPF)
    Compression mode                         : Lossy
    Stream size                              : 264 MiB (3%)
    Language                                 : Telugu
    Service kind                             : Complete Main
    Default                                  : No
    Forced                                   : No

    Audio #24
    ID                                       : 25
    Format                                   : E-AC-3
    Format/Info                              : Enhanced AC-3
    Commercial name                          : Dolby Digital Plus
    Codec ID                                 : A_EAC3
    Duration                                 : 57 min 35 s
    Bit rate mode                            : Constant
    Bit rate                                 : 640 kb/s
    Channel(s)                               : 6 channels
    Channel layout                           : L R C LFE Ls Rs
    Sampling rate                            : 48.0 kHz
    Frame rate                               : 31.250 FPS (1536 SPF)
    Compression mode                         : Lossy
    Stream size                              : 264 MiB (3%)
    Language                                 : Kannada
    Service kind                             : Complete Main
    Default                                  : No
    Forced                                   : No

    Audio #25
    ID                                       : 26
    Format                                   : E-AC-3
    Format/Info                              : Enhanced AC-3
    Commercial name                          : Dolby Digital Plus
    Codec ID                                 : A_EAC3
    Duration                                 : 57 min 35 s
    Bit rate mode                            : Constant
    Bit rate                                 : 640 kb/s
    Channel(s)                               : 6 channels
    Channel layout                           : L R C LFE Ls Rs
    Sampling rate                            : 48.0 kHz
    Frame rate                               : 31.250 FPS (1536 SPF)
    Compression mode                         : Lossy
    Stream size                              : 264 MiB (3%)
    Language                                 : Malayalam
    Service kind                             : Complete Main
    Default                                  : No
    Forced                                   : No

    Audio #26
    ID                                       : 27
    Format                                   : E-AC-3
    Format/Info                              : Enhanced AC-3
    Commercial name                          : Dolby Digital Plus
    Codec ID                                 : A_EAC3
    Duration                                 : 57 min 35 s
    Bit rate mode                            : Constant
    Bit rate                                 : 640 kb/s
    Channel(s)                               : 6 channels
    Channel layout                           : L R C LFE Ls Rs
    Sampling rate                            : 48.0 kHz
    Frame rate                               : 31.250 FPS (1536 SPF)
    Compression mode                         : Lossy
    Stream size                              : 264 MiB (3%)
    Language                                 : Thai
    Service kind                             : Complete Main
    Default                                  : No
    Forced                                   : No

    Audio #27
    ID                                       : 28
    Format                                   : E-AC-3
    Format/Info                              : Enhanced AC-3
    Commercial name                          : Dolby Digital Plus
    Codec ID                                 : A_EAC3
    Duration                                 : 57 min 35 s
    Bit rate mode                            : Constant
    Bit rate                                 : 640 kb/s
    Channel(s)                               : 6 channels
    Channel layout                           : L R C LFE Ls Rs
    Sampling rate                            : 48.0 kHz
    Frame rate                               : 31.250 FPS (1536 SPF)
    Compression mode                         : Lossy
    Stream size                              : 264 MiB (3%)
    Language                                 : Japanese
    Service kind                             : Complete Main
    Default                                  : No
    Forced                                   : No

    Text #1
    ID                                       : 29
    Format                                   : UTF-8
    Codec ID                                 : S_TEXT/UTF8
    Codec ID/Info                            : UTF-8 Plain Text
    Duration                                 : 54 min 25 s
    Bit rate                                 : 0 b/s
    Frame rate                               : 0.003 FPS
    Count of elements                        : 10
    Stream size                              : 173 Bytes (0%)
    Language                                 : Malay
    Default                                  : No
    Forced                                   : No

    Text #2
    ID                                       : 30
    Format                                   : UTF-8
    Codec ID                                 : S_TEXT/UTF8
    Codec ID/Info                            : UTF-8 Plain Text
    Duration                                 : 54 min 25 s
    Bit rate                                 : 0 b/s
    Frame rate                               : 0.003 FPS
    Count of elements                        : 9
    Stream size                              : 150 Bytes (0%)
    Language                                 : Catalan
    Default                                  : No
    Forced                                   : No

    Text #3
    ID                                       : 31
    Format                                   : UTF-8
    Codec ID                                 : S_TEXT/UTF8
    Codec ID/Info                            : UTF-8 Plain Text
    Duration                                 : 54 min 25 s
    Bit rate                                 : 0 b/s
    Frame rate                               : 0.003 FPS
    Count of elements                        : 9
    Stream size                              : 173 Bytes (0%)
    Language                                 : German
    Default                                  : No
    Forced                                   : No

    Text #4
    ID                                       : 32
    Format                                   : UTF-8
    Codec ID                                 : S_TEXT/UTF8
    Codec ID/Info                            : UTF-8 Plain Text
    Duration                                 : 54 min 25 s
    Bit rate                                 : 0 b/s
    Frame rate                               : 0.003 FPS
    Count of elements                        : 9
    Stream size                              : 163 Bytes (0%)
    Language                                 : Spanish
    Default                                  : No
    Forced                                   : No

    Text #5
    ID                                       : 33
    Format                                   : UTF-8
    Codec ID                                 : S_TEXT/UTF8
    Codec ID/Info                            : UTF-8 Plain Text
    Duration                                 : 54 min 25 s
    Bit rate                                 : 0 b/s
    Frame rate                               : 0.003 FPS
    Count of elements                        : 9
    Stream size                              : 182 Bytes (0%)
    Language                                 : Spanish
    Default                                  : No
    Forced                                   : No

    Text #6
    ID                                       : 34
    Format                                   : UTF-8
    Codec ID                                 : S_TEXT/UTF8
    Codec ID/Info                            : UTF-8 Plain Text
    Duration                                 : 54 min 25 s
    Bit rate                                 : 0 b/s
    Frame rate                               : 0.002 FPS
    Count of elements                        : 7
    Stream size                              : 146 Bytes (0%)
    Default                                  : No
    Forced                                   : No

    Text #7
    ID                                       : 35
    Format                                   : UTF-8
    Codec ID                                 : S_TEXT/UTF8
    Codec ID/Info                            : UTF-8 Plain Text
    Duration                                 : 54 min 25 s
    Bit rate                                 : 0 b/s
    Frame rate                               : 0.003 FPS
    Count of elements                        : 10
    Stream size                              : 202 Bytes (0%)
    Language                                 : French
    Default                                  : No
    Forced                                   : No

    Text #8
    ID                                       : 36
    Format                                   : UTF-8
    Codec ID                                 : S_TEXT/UTF8
    Codec ID/Info                            : UTF-8 Plain Text
    Duration                                 : 54 min 25 s
    Bit rate                                 : 0 b/s
    Frame rate                               : 0.003 FPS
    Count of elements                        : 9
    Stream size                              : 230 Bytes (0%)
    Language                                 : French
    Default                                  : No
    Forced                                   : No

    Text #9
    ID                                       : 37
    Format                                   : UTF-8
    Codec ID                                 : S_TEXT/UTF8
    Codec ID/Info                            : UTF-8 Plain Text
    Duration                                 : 54 min 25 s
    Bit rate                                 : 0 b/s
    Frame rate                               : 0.003 FPS
    Count of elements                        : 9
    Stream size                              : 169 Bytes (0%)
    Language                                 : Indonesian
    Default                                  : No
    Forced                                   : No

    Text #10
    ID                                       : 38
    Format                                   : UTF-8
    Codec ID                                 : S_TEXT/UTF8
    Codec ID/Info                            : UTF-8 Plain Text
    Duration                                 : 54 min 25 s
    Bit rate                                 : 0 b/s
    Frame rate                               : 0.003 FPS
    Count of elements                        : 9
    Stream size                              : 152 Bytes (0%)
    Language                                 : Italian
    Default                                  : No
    Forced                                   : No

    Text #11
    ID                                       : 39
    Format                                   : UTF-8
    Codec ID                                 : S_TEXT/UTF8
    Codec ID/Info                            : UTF-8 Plain Text
    Duration                                 : 54 min 25 s
    Bit rate                                 : 0 b/s
    Frame rate                               : 0.003 FPS
    Count of elements                        : 9
    Stream size                              : 167 Bytes (0%)
    Language                                 : Hungarian
    Default                                  : No
    Forced                                   : No

    Text #12
    ID                                       : 40
    Format                                   : UTF-8
    Codec ID                                 : S_TEXT/UTF8
    Codec ID/Info                            : UTF-8 Plain Text
    Duration                                 : 54 min 25 s
    Bit rate                                 : 0 b/s
    Frame rate                               : 0.003 FPS
    Count of elements                        : 9
    Stream size                              : 167 Bytes (0%)
    Language                                 : Dutch
    Default                                  : No
    Forced                                   : No

    Text #13
    ID                                       : 41
    Format                                   : UTF-8
    Codec ID                                 : S_TEXT/UTF8
    Codec ID/Info                            : UTF-8 Plain Text
    Duration                                 : 21 min 0 s
    Bit rate                                 : 0 b/s
    Frame rate                               : 0.003 FPS
    Count of elements                        : 4
    Stream size                              : 83.0 Bytes (0%)
    Language                                 : Polish
    Default                                  : No
    Forced                                   : No

    Text #14
    ID                                       : 42
    Format                                   : UTF-8
    Codec ID                                 : S_TEXT/UTF8
    Codec ID/Info                            : UTF-8 Plain Text
    Duration                                 : 54 min 25 s
    Bit rate                                 : 0 b/s
    Frame rate                               : 0.003 FPS
    Count of elements                        : 10
    Stream size                              : 183 Bytes (0%)
    Language                                 : Portuguese
    Default                                  : No
    Forced                                   : No

    Text #15
    ID                                       : 43
    Format                                   : UTF-8
    Codec ID                                 : S_TEXT/UTF8
    Codec ID/Info                            : UTF-8 Plain Text
    Duration                                 : 54 min 25 s
    Bit rate                                 : 0 b/s
    Frame rate                               : 0.003 FPS
    Count of elements                        : 10
    Stream size                              : 198 Bytes (0%)
    Language                                 : Portuguese
    Default                                  : No
    Forced                                   : No

    Text #16
    ID                                       : 44
    Format                                   : UTF-8
    Codec ID                                 : S_TEXT/UTF8
    Codec ID/Info                            : UTF-8 Plain Text
    Duration                                 : 54 min 25 s
    Bit rate                                 : 0 b/s
    Frame rate                               : 0.003 FPS
    Count of elements                        : 10
    Stream size                              : 176 Bytes (0%)
    Language                                 : Romanian
    Default                                  : No
    Forced                                   : No

    Text #17
    ID                                       : 45
    Format                                   : UTF-8
    Codec ID                                 : S_TEXT/UTF8
    Codec ID/Info                            : UTF-8 Plain Text
    Duration                                 : 54 min 25 s
    Bit rate                                 : 0 b/s
    Frame rate                               : 0.003 FPS
    Count of elements                        : 10
    Stream size                              : 223 Bytes (0%)
    Language                                 : Vietnamese
    Default                                  : No
    Forced                                   : No

    Text #18
    ID                                       : 46
    Format                                   : UTF-8
    Codec ID                                 : S_TEXT/UTF8
    Codec ID/Info                            : UTF-8 Plain Text
    Duration                                 : 54 min 25 s
    Bit rate                                 : 0 b/s
    Frame rate                               : 0.003 FPS
    Count of elements                        : 9
    Stream size                              : 188 Bytes (0%)
    Language                                 : Turkish
    Default                                  : No
    Forced                                   : No

    Text #19
    ID                                       : 47
    Format                                   : UTF-8
    Codec ID                                 : S_TEXT/UTF8
    Codec ID/Info                            : UTF-8 Plain Text
    Duration                                 : 54 min 25 s
    Bit rate                                 : 0 b/s
    Frame rate                               : 0.003 FPS
    Count of elements                        : 10
    Stream size                              : 180 Bytes (0%)
    Language                                 : Czech
    Default                                  : Yes
    Forced                                   : No

    Text #20
    ID                                       : 48
    Format                                   : UTF-8
    Codec ID                                 : S_TEXT/UTF8
    Codec ID/Info                            : UTF-8 Plain Text
    Duration                                 : 54 min 25 s
    Bit rate                                 : 0 b/s
    Frame rate                               : 0.003 FPS
    Count of elements                        : 10
    Stream size                              : 378 Bytes (0%)
    Language                                 : Greek
    Default                                  : No
    Forced                                   : No

    Text #21
    ID                                       : 49
    Format                                   : UTF-8
    Codec ID                                 : S_TEXT/UTF8
    Codec ID/Info                            : UTF-8 Plain Text
    Duration                                 : 54 min 25 s
    Bit rate                                 : 0 b/s
    Frame rate                               : 0.003 FPS
    Count of elements                        : 10
    Stream size                              : 322 Bytes (0%)
    Language                                 : Hebrew
    Default                                  : No
    Forced                                   : No

    Text #22
    ID                                       : 50
    Format                                   : UTF-8
    Codec ID                                 : S_TEXT/UTF8
    Codec ID/Info                            : UTF-8 Plain Text
    Duration                                 : 54 min 25 s
    Bit rate                                 : 0 b/s
    Frame rate                               : 0.003 FPS
    Count of elements                        : 10
    Stream size                              : 322 Bytes (0%)
    Language                                 : Arabic
    Default                                  : No
    Forced                                   : No

    Text #23
    ID                                       : 51
    Format                                   : UTF-8
    Codec ID                                 : S_TEXT/UTF8
    Codec ID/Info                            : UTF-8 Plain Text
    Duration                                 : 54 min 25 s
    Bit rate                                 : 0 b/s
    Frame rate                               : 0.003 FPS
    Count of elements                        : 10
    Stream size                              : 392 Bytes (0%)
    Language                                 : Hindi
    Default                                  : No
    Forced                                   : No

    Text #24
    ID                                       : 52
    Format                                   : UTF-8
    Codec ID                                 : S_TEXT/UTF8
    Codec ID/Info                            : UTF-8 Plain Text
    Duration                                 : 54 min 25 s
    Bit rate                                 : 1 b/s
    Frame rate                               : 0.003 FPS
    Count of elements                        : 10
    Stream size                              : 537 Bytes (0%)
    Language                                 : Tamil
    Default                                  : No
    Forced                                   : No

    Text #25
    ID                                       : 53
    Format                                   : UTF-8
    Codec ID                                 : S_TEXT/UTF8
    Codec ID/Info                            : UTF-8 Plain Text
    Duration                                 : 54 min 25 s
    Bit rate                                 : 1 b/s
    Frame rate                               : 0.003 FPS
    Count of elements                        : 10
    Stream size                              : 518 Bytes (0%)
    Language                                 : Telugu
    Default                                  : No
    Forced                                   : No

    Text #26
    ID                                       : 54
    Format                                   : UTF-8
    Codec ID                                 : S_TEXT/UTF8
    Codec ID/Info                            : UTF-8 Plain Text
    Duration                                 : 54 min 25 s
    Bit rate                                 : 1 b/s
    Frame rate                               : 0.003 FPS
    Count of elements                        : 10
    Stream size                              : 468 Bytes (0%)
    Language                                 : Kannada
    Default                                  : No
    Forced                                   : No

    Text #27
    ID                                       : 55
    Format                                   : UTF-8
    Codec ID                                 : S_TEXT/UTF8
    Codec ID/Info                            : UTF-8 Plain Text
    Duration                                 : 54 min 25 s
    Bit rate                                 : 1 b/s
    Frame rate                               : 0.003 FPS
    Count of elements                        : 10
    Stream size                              : 485 Bytes (0%)
    Language                                 : Malayalam
    Default                                  : No
    Forced                                   : No

    Text #28
    ID                                       : 56
    Format                                   : UTF-8
    Codec ID                                 : S_TEXT/UTF8
    Codec ID/Info                            : UTF-8 Plain Text
    Duration                                 : 54 min 25 s
    Bit rate                                 : 1 b/s
    Frame rate                               : 0.003 FPS
    Count of elements                        : 10
    Stream size                              : 510 Bytes (0%)
    Language                                 : Thai
    Default                                  : No
    Forced                                   : No

    Text #29
    ID                                       : 57
    Format                                   : UTF-8
    Codec ID                                 : S_TEXT/UTF8
    Codec ID/Info                            : UTF-8 Plain Text
    Duration                                 : 54 min 25 s
    Bit rate                                 : 0 b/s
    Frame rate                               : 0.003 FPS
    Count of elements                        : 9
    Stream size                              : 248 Bytes (0%)
    Language                                 : Japanese
    Default                                  : No
    Forced                                   : No

    Text #30
    ID                                       : 58
    Format                                   : UTF-8
    Codec ID                                 : S_TEXT/UTF8
    Codec ID/Info                            : UTF-8 Plain Text
    Duration                                 : 54 min 32 s
    Bit rate                                 : 41 b/s
    Frame rate                               : 0.186 FPS
    Count of elements                        : 610
    Stream size                              : 16.7 KiB (0%)
    Language                                 : Malay
    Default                                  : No
    Forced                                   : No

    Text #31
    ID                                       : 59
    Format                                   : UTF-8
    Codec ID                                 : S_TEXT/UTF8
    Codec ID/Info                            : UTF-8 Plain Text
    Duration                                 : 54 min 32 s
    Bit rate                                 : 43 b/s
    Frame rate                               : 0.186 FPS
    Count of elements                        : 609
    Stream size                              : 17.2 KiB (0%)
    Language                                 : Catalan
    Default                                  : No
    Forced                                   : No

    Text #32
    ID                                       : 60
    Format                                   : UTF-8
    Codec ID                                 : S_TEXT/UTF8
    Codec ID/Info                            : UTF-8 Plain Text
    Duration                                 : 54 min 32 s
    Bit rate                                 : 41 b/s
    Frame rate                               : 0.186 FPS
    Count of elements                        : 609
    Stream size                              : 16.6 KiB (0%)
    Language                                 : Danish
    Default                                  : No
    Forced                                   : No









    krok81, DEMOKLES,

    + Pridaj vlastnu verziu tohto torrentu +


    Upozornenie:
    Ziadny zo zobrazených súborov sa nenachádza na tomto serveri. Server slúzi len k síreniu vlastnorucne vytvorených aplikácií, videí, hudby ai. Autori stránok nenesú ziadnu zodpovednost za zverejnené odkazy, komentáre a obsah súborov. Vsetky komentáre, odkazy, súbory ktoré by svojou povahou mohli byt v rozpore zo zákonmi sem vkladáte na vlastnú zodpovednost. Autori stránok si vyhradzujú právo cenzúry odkazov, komentárov príp. súborov, ktoré by svojou povahou mohli byt v rozpore zo zákonmi a dobrými mravmi. Dodrzujte pravidlá!


    No comments...


    Back

    Na serveru se nenalézají zádne soubory. Za odkazy jsou výhradně zodpovědní uzivatelé a návstěvníci tohoto trackeru. Administrátor není zodpovědný za pridaný obsah ani za skody zpusobené uzivateli. Nesmíte pouzívat tuto webovou stránku pro distribuovaní nebo download zádného materiálu pokud nemáte povolení od príslusného vlastníka práv. Uzivatelé jsou zodpovědní za dodrzování těchto pravidel a podmínek. Owner má právo kdykoliv změnit pravidla tohoto trackeru.

    [ Script trval: 0.088 sec. ] - [ GZIP: enabled ]
    Je zhruba 19:07
    memcache

    TOPlist