Tvoj účet nieje VIP.
Preto sú tvoje funkcie a možnosti značne obmedzené.
Pre aktiváciu VIP klikni sem.

The Runaways (2010)[CZ/EN)[720p] = CSFD 73% | SkTorrent.eu

Cz-SkTorrent open Tracker, na volné zdielanie súborov. Pridajte sa k nasej komunite a získajte pristup k tisícom torrentov.

  • vysoká rýchlost
  • úplne zdarma
  • prevazne Slovenska a Ceska scena
  • ste tu s nami uz 5 rokov - Dakujeme
  • Vitaj Guest (Login) Ako stahovat
    torrenty?
    Torrenty:
    v1 textová
    v2 obrázková
    v3 online filmy
    Ako sa stat
    Uploaderom
    Online
    Filmy
    Forum
    Pravidlá
    BitTorrent
    klient
    Meno: Heslo:
    Zaregistrovat
    Po zaregistrovaní mozte volne stahovat
    Zabudol som heslo

    Torrent's details
    The Runaways (2010)[CZ/EN)[720p] = CSFD 73% Názov:The Runaways (2010)[CZ/EN)[720p] = CSFD 73% Hodnocení:N/A Stiahnut
    Pozriet Online
    Kategória:Filmy CZ/SK dabing Velikost:5.8 GB BitTorrent klient
    Pridaný: Súbory:
    Skontrolován:2020-09-12 Peerov:11 (Seed: 11, Leech: 0)
    Zaner:Drama,Hudebni,Zivotopisny Uploader:Uvidis, az ked budes
    VIP
    Kúp nám Pivo 1,10€

    Kúp nám Pivo
    Podporte nas na Facebooku !
    Pridaj do zalozky
    Pridaj do zalozky




    The Runaways

  • The Runaways
  • The Runaways (festivalový název)
  • The Runaways

    Hudební / Drama / Životopisný
    USA, 2010, 102 min
    Režie:Floria Sigismondi
    Předloha:Cherie Currie (kniha)
    Scénář:Floria Sigismondi
    Kamera:Benoît Debie
    Hrají:Kristen Stewart, Dakota Fanning, Scout Taylor-Compton, Alia Shawkat, Tatum O'Neal, Johnny Lewis, Michael Shannon, Brett Cullen, Stella Maeve, Riley Keough, Hannah Marks, Adam Silver, Daniel D. Lee, Darrian Smith, Shammy Dee, Brendan Sexton III, Peggy Stewart, Nick Eversman, Karen Jean Wu, Allie Grant, Time Winters, Mickey Petralia… ([url=https://www.csfd.cz/film/255178-the-runaways/prehled/#show more content]více[/url])

    Obsah


  • Snímek The Runaways vypráví příběh stejnojmené dívčí rockové kapely, zformované v druhé polovině 70. let. Duší vůbec první dívčí kapely byla Joan Jett, kterou ve filmu ztvárnila Kristen Stewartová. Ozdobou a zároveň hlavní zpěvačkou byla Cherie Currie, kterou si zahrála Dakota Fanningová. Dívky skupinu založily už jako teenagerky a úspěch se dostavil velmi rychle, byly však mezi nimi velké problémy a každá z nich viděla společnou budoucnost trochu jinak. Film, založený na memoárech právě Cherrie, popisuje počátky kapely, nečekanou slávu, její temnou stránku a vztahy mezi jednotlivými členkami, které vedly zákonitě až k rozpadu skupiny.(HBO Europe)




    Media info :

    Formát                                   : Matroska
    Format version                           : Version 2
    Velikost souboru                         : 5,83 GiB
    Duration                                 : 1 h 46 min
    Celkový BitRate                          : 7 834 kb/s
    Název filmu                              : The.Runaways.2010.720p.BluRay.x264.DTS.EN.AC3.CZ-XtrM
    Encoded date                             : UTC 2011-03-01 17:09:36
    Použitý software                         : mkvmerge v4.0.0 ('The Stars were mine') built on Jun  5 2010 17:44:09
    Enkódoval                                : libebml v1.0.0 + libmatroska v1.0.0

    Video
    ID                                       : 1
    Formát                                   : AVC
    Formát/Info                              : Advanced Video Codec
    Format profile                           : High@L4.1
    Format settings                          : CABAC / 8 Ref Frames
    Format settings, CABAC                   : Ano
    Format settings, Reference frames        : 8 frames
    Codec ID                                 : V_MPEG4/ISO/AVC
    Duration                                 : 1 h 46 min
    Bit rate                                 : 5 874 kb/s
    Šířka                                    : 1 280pixely
    Výška                                    : 544pixely
    Poměr stran                              : 2,35:1
    Frame rate mode                          : Constant
    Frame rate                               : 23,976 FPS
    Color space                              : YUV
    Chroma subsampling                       : 4:2:0
    Bit depth                                : 8 bits
    Scan type                                : Progressive
    Bits/(Pixel*Frame)                       : 0.352
    Stream size                              : 4,26 GiB (73%)
    Enkódoval                                : x264 core 88 r1471 1144615
    Nastavení enkoderu                       : cabac=1 / ref=8 / deblock=1:-3:-3 / analyse=0x3:0x113 / me=umh / subme=10 / psy=1 / psy_rd=1.05:0.00 / mixed_ref=1 / me_range=32 / chroma_me=1 / trellis=2 / 8x8dct=1 / cqm=2 / deadzone=21,11 / fast_pskip=0 / chroma_qp_offset=-1 / threads=12 / sliced_threads=0 / nr=0 / decimate=1 / mbaff=0 / constrained_intra=0 / bframes=4 / b_pyramid=2 / b_adapt=2 / b_bias=0 / direct=3 / wpredb=1 / wpredp=2 / keyint=250 / keyint_min=25 / scenecut=40 / intra_refresh=0 / rc_lookahead=50 / rc=2pass / mbtree=1 / bitrate=5874 / ratetol=1.0 / qcomp=0.60 / qpmin=10 / qpmax=51 / qpstep=4 / cplxblur=20.0 / qblur=0.5 / vbv_maxrate=50000 / vbv_bufsize=50000 / ip_ratio=1.40 / aq=1:1.00
    Jazyk                                    : English
    Default                                  : Ne
    Forced                                   : Ne

    Audio #1
    ID                                       : 2
    Formát                                   : AC-3
    Formát/Info                              : Audio Coding 3
    Commercial name                          : Dolby Digital
    Codec ID                                 : A_AC3
    Duration                                 : 1 h 46 min
    Bit rate mode                            : Constant
    Bit rate                                 : 448 kb/s
    Kanál(y)                                 : 6 kanály
    Channel layout                           : L R C LFE Ls Rs
    Sampling rate                            : 48,0 kHz
    Frame rate                               : 31,250 FPS (1536 SPF)
    Compression mode                         : Lossy
    Stream size                              : 342 MiB (6%)
    Jazyk                                    : Czech
    Service kind                             : Complete Main
    Default                                  : Ano
    Forced                                   : Ne

    Audio #2
    ID                                       : 3
    Formát                                   : DTS
    Formát/Info                              : Digital Theater Systems
    Codec ID                                 : A_DTS
    Duration                                 : 1 h 46 min
    Bit rate mode                            : Constant
    Bit rate                                 : 1 509 kb/s
    Kanál(y)                                 : 6 kanály
    Channel layout                           : C L R Ls Rs LFE
    Sampling rate                            : 48,0 kHz
    Frame rate                               : 93,750 FPS (512 SPF)
    Bit depth                                : 24 bits
    Compression mode                         : Lossy
    Stream size                              : 1,12 GiB (19%)
    Jazyk                                    : English
    Default                                  : Ne
    Forced                                   : Ne

    Text #1
    ID                                       : 4
    Formát                                   : UTF-8
    Codec ID                                 : S_TEXT/UTF8
    Codec ID/Info                            : UTF-8 Plain Text
    Jazyk                                    : Czech
    Default                                  : Ne
    Forced                                   : Ne

    Text #2
    ID                                       : 5
    Formát                                   : UTF-8
    Codec ID                                 : S_TEXT/UTF8
    Codec ID/Info                            : UTF-8 Plain Text
    Jazyk                                    : English
    Default                                  : Ne
    Forced                                   : Ne


    JAZYK CZ,EN
    TITULKY CZ,EN








    romulus66,

    + Pridaj vlastnu verziu tohto torrentu +


  • Upozornenie:
    Ziadny zo zobrazených súborov sa nenachádza na tomto serveri. Server slúzi len k síreniu vlastnorucne vytvorených aplikácií, videí, hudby ai. Autori stránok nenesú ziadnu zodpovednost za zverejnené odkazy, komentáre a obsah súborov. Vsetky komentáre, odkazy, súbory ktoré by svojou povahou mohli byt v rozpore zo zákonmi sem vkladáte na vlastnú zodpovednost. Autori stránok si vyhradzujú právo cenzúry odkazov, komentárov príp. súborov, ktoré by svojou povahou mohli byt v rozpore zo zákonmi a dobrými mravmi. Dodrzujte pravidlá!




    Uploader
    12/09/2020 16.20.09
    Ahoj vsem.Dejte mi vedet jak to jede pls.Koupil jsem novej notas a znate to.Instalace instalace instalace.Uz mi z toho jebne


    Back

    Na serveru se nenalézají zádne soubory. Za odkazy jsou výhradně zodpovědní uzivatelé a návstěvníci tohoto trackeru. Administrátor není zodpovědný za pridaný obsah ani za skody zpusobené uzivateli. Rozsirovat stránku nebo její obsah bez souhlasu ownera je zakázano. Nesmíte pouzívat tuto webovou stránku pro distribuovaní nebo download zádného materiálu pokud nemáte povolení od príslusného vlastníka práv. Uzivatelé jsou zodpovědní za dodrzování těchto pravidel a podmínek. Owner má právo kdykoliv změnit pravidla tohoto trackeru.

    [ Script trval: 0.028 sec. ] - [ GZIP: enabled ]
    BtiTracker (1.4.8) by Btiteam
    Je zhruba 05:26

    TOPlist