Tvoj účet nieje VIP.
Preto sú tvoje funkcie a možnosti značne obmedzené.
Pre aktiváciu VIP klikni sem.

This_Ain't_Game_of_Thrones_XXX.mp4 | SkTorrent.eu

Cz-SkTorrent open Tracker, na volné zdielanie súborov. Pridajte sa k nasej komunite a získajte pristup k tisícom torrentov.

  • vysoká rýchlost
  • úplne zdarma
  • prevazne Slovenska a Ceska scena
  • ste tu s nami uz 5 rokov - Dakujeme
  • Vitaj Guest (Login) Ako stahovat
    torrenty?
    Torrenty:
    v1 textová
    v2 obrázková
    v3 online filmy
    Ako sa stat
    Uploaderom
    Online
    Filmy
    Forum
    Pravidlá
    BitTorrent
    klient
    Meno: Heslo:
    Zaregistrovat
    Po zaregistrovaní mozte volne stahovat
    Zabudol som heslo

    Torrent's details
    This_Ain't_Game_of_Thrones_XXX.mp4 Názov:This_Ain't_Game_of_Thrones_XXX.mp4 Hodnocení: Stiahnut
    Pozriet Online
    Kategória:xXx Velikost:1.4 GB BitTorrent klient
    Pridaný: Súbory:
    Skontrolován:2020-03-24 Peerov:23 (Seed: 23, Leech: 0)
    Zaner: Uploader:Uvidis, az ked budes
    VIP
    Kúp nám Pivo 1,10€

    Kúp nám Pivo
    Podporte nas na Facebooku !
    Pridaj do zalozky
    Pridaj do zalozky




    NÁZEV:
    This Ain´t Game of Thrones (XXX Parody)

    DÉLKA:
    2h 2min

    HRAJÍ:
    Alec Knight, Evan Stone, Marie McCray, Scarlett Fay, Ryan Driller, Spencer Scott, Richie Calhoun , Amanda Tate, Brandi Love, Kristen Price

    MEDIA INFO:
    General
    Complete name: This_Ain't_Game_of_Thrones_XXX.mp4
    Format: MPEG-4
    Format profile: Base Media
    Codec ID: isom (isom)
    File size: 1.36 GiB
    Duration: 2 h 2 min
    Overall bit rate mode: Variable
    Overall bit rate: 1 580 kb/s
    Encoded date: UTC 2014-04-01 01:16:00
    Tagged date: UTC 2014-04-01 01:16:00
    Writing library: Apple QuickTime

    Video
    ID: 1
    Format: AVC
    Format/Info: Advanced Video Codec
    Format profile: Main@L3.1
    Format settings: 2 Ref Frames
    Format settings, CABAC: No
    Format settings, ReFrames: 2 frames
    Codec ID: avc1
    Codec ID/Info: Advanced Video Coding
    Duration: 2 h 2 min
    Bit rate: 1 476 kb/s
    Maximum bit rate: 2 324 kb/s
    Width: 960 pixels
    Height: 540 pixels
    Display aspect ratio: 16:9
    Frame rate mode: Constant
    Frame rate: 29.970 (29970/1000) FPS
    Color space: YUV
    Chroma subsampling: 4:2:0
    Bit depth: 8 bits
    Scan type: Progressive
    Bits/(Pixel*Frame): 0.095
    Stream size: 1.27 GiB (93%)
    Encoded date: UTC 2014-03-06 00:58:47
    Tagged date: UTC 2014-04-01 01:17:12
    Color range: Limited
    Color primaries: BT.709
    Transfer characteristics: BT.709
    Matrix coefficients: BT.709
    Codec configuration box: avcC

    Audio
    ID: 2
    Format: AAC LC
    Format/Info: Advanced Audio Codec Low Complexity
    Codec ID: mp4a-40-2
    Duration: 2 h 2 min
    Bit rate mode: Variable
    Bit rate: 98.7 kb/s
    Maximum bit rate: 112 kb/s
    Channel(s): 2 channels
    Channel layout: L R
    Sampling rate: 44.1 kHz
    Frame rate: 43.066 FPS (1024 SPF)
    Compression mode: Lossy
    Stream size: 87.3 MiB (6%)
    Encoded date: UTC 2014-04-01 01:05:25
    Tagged date: UTC 2014-04-01 01:17:12



    ...



    COVER:








    + Pridaj vlastnu verziu tohto torrentu +


    Upozornenie:
    Ziadny zo zobrazených súborov sa nenachádza na tomto serveri. Server slúzi len k síreniu vlastnorucne vytvorených aplikácií, videí, hudby ai. Autori stránok nenesú ziadnu zodpovednost za zverejnené odkazy, komentáre a obsah súborov. Vsetky komentáre, odkazy, súbory ktoré by svojou povahou mohli byt v rozpore zo zákonmi sem vkladáte na vlastnú zodpovednost. Autori stránok si vyhradzujú právo cenzúry odkazov, komentárov príp. súborov, ktoré by svojou povahou mohli byt v rozpore zo zákonmi a dobrými mravmi. Dodrzujte pravidlá!


    No comments...


    Back

    Na serveru se nenalézají zádne soubory. Za odkazy jsou výhradně zodpovědní uzivatelé a návstěvníci tohoto trackeru. Administrátor není zodpovědný za pridaný obsah ani za skody zpusobené uzivateli. Rozsirovat stránku nebo její obsah bez souhlasu ownera je zakázano. Nesmíte pouzívat tuto webovou stránku pro distribuovaní nebo download zádného materiálu pokud nemáte povolení od príslusného vlastníka práv. Uzivatelé jsou zodpovědní za dodrzování těchto pravidel a podmínek. Owner má právo kdykoliv změnit pravidla tohoto trackeru.

    [ Script trval: 0.022 sec. ] - [ GZIP: enabled ]
    BtiTracker (1.4.8) by Btiteam
    Je zhruba 20:23

    TOPlist