Tvoj účet nieje VIP.
Preto sú tvoje funkcie a možnosti značne obmedzené.
Pre aktiváciu VIP klikni sem.

Tiche misto: Cast II / A Quiet Place Part II (2020)(CZ/EN)(2160p 4K HDR)(BRRip) = CSFD 74% | SkTorrent.eu

Cz-SkTorrent open Tracker, na volné zdielanie súborov. Pridajte sa k nasej komunite a získajte pristup k tisícom torrentov.

  • vysoká rýchlost
  • úplne zdarma
  • prevazne Slovenska a Ceska scena
  • ste tu s nami uz 5 rokov - Dakujeme
  • Vitaj Guest (Login) Ako stahovat
    torrenty?
    Torrenty:
    v1 textová
    v2 obrázková
    v3 online filmy
    Ako sa stat
    Uploaderom
    Online
    Filmy
    Forum
    Pravidlá
    BitTorrent
    klient
    Meno: Heslo:
    Zaregistrovat
    Po zaregistrovaní mozte volne stahovat
    Zabudol som heslo

    Torrent's details
    Tiche misto: Cast II / A Quiet Place Part II (2020)(CZ/EN)(2160p 4K HDR)(BRRip) = CSFD 74% Názov:Tiche misto: Cast II / A Quiet Place Part II (2020)(CZ/EN)(2160p 4K HDR)(BRRip) = CSFD 74% Hodnocení: Stiahnut
    Pozriet Online
    Kategória:UHD Filmy Velikost:23.5 GB BitTorrent klient
    Pridaný: Súbory:
    Skontrolován:2021-07-26 Peerov:22 (Seed: 21, Leech: 1)
    Zaner:Drama,Horor,Sci-Fi,Thriller Uploader:Uvidis, az ked budes
    VIP
    Kúp nám Pivo 1,10€

    Kúp nám Pivo
    Podporte nas na Facebooku !
    Pridaj do zalozky
    Pridaj do zalozky






    Tiche misto: Cast II / A Quiet Place Part II
    (2020)(CZ/EN) = CSFD 74%

    2160p 4K HDR10 - HEVC – 34.7 Mb/s Bitrate verzia









    Video: 2160p 4K HDR10 - HEVC
    Jazyk: CZ 5.1 DD / EN 7.1 TrueHD / EN 7.1 DTS-HD / EN 5.1 DD
    Titulky: CZ Full + Forced / EN Full + Forced
    Horror / Thriller / Sci-Fi / Drama
    USA 2020
    97 min

    PRODUKCE & HERCI

    Režie: John Krasinski
    Scénář: John Krasinski
    Kamera: Polly Morgan
    Hudba: Marco Beltrami
    Hrají: (Emily Blunt - ), Cillian Murphy, Noah Jupe, Millicent Simmonds, Djimon Hounsou, Wayne Duvall, Okieriete Onaodowan, Blake DeLong, John Krasinski, Zachary Golinger, Lauren-Ashley Cristiano

    OBSAH

    Neví se, odkud přišli, ale okamžitě po invazi na naši planetu se postavili na vrchol potravního řetězce. Reagovali na jakýkoliv zvuk a jeho původce bleskově zlikvidovali. Abbottovi přežili i díky tomu, že se kvůli nejstarší dceři naučili všichni komunikovat posunkovou řečí. Jenže ani to jim nakonec nepomohlo, otevřený střet s vetřelci nepřežil otec Lee (John Krasinski) a matka Evelyn ((Emily Blunt - )) zůstala se třemi dětmi (z nichž jedno je novorozeně) úplně sama. Pragmatické ženě je jasné, že přežít dokážou jen s pomocí dalších přeživších. Právě tak začíná příběh druhé části Tichého místa. Abbottovi opouštějí svou farmu, díky systému přísných pravidel relativně bezpečné útočiště.  Vydávají se na extrémně nebezpečnou pouť, na jejímž konci snad čeká někdo, kdo jim pomůže. Během svého putování si však uvědomí, že stejně velké nebezpečí jako od nezvaných hostů z jiné planety, jim může hrozit od jejich vlastních lidí, k nimž se upínali jako k poslední naději na záchranu. Jak říká cynický drsňák (Cillian Murphy), ke kterému se přidají: „Lidi, co zůstali, si zachránit rozhodně nezaslouží.“

    SCREEN



    TRAILER






    Hlavní
    Formát : Matroska
    Format version : Version 4
    Velikost souboru : 23,5 GiB
    Duration : 1 h 37 min
    Overall bit rate mode : Variable
    Celkový BitRate : 34,7 Mb/s
    Encoded date : UTC 2021-07-25 22:28:23
    Použitý software : mkvmerge v31.0.0 ('Dolores In A Shoestand') 64-bit
    Enkódoval : libebml v1.3.6 + libmatroska v1.4.9

    Video
    ID : 1
    Formát : HEVC
    Formát/Info : High Efficiency Video Coding
    Format profile : Main 10@L5.1@High
    HDR format : SMPTE ST 2086, HDR10 compatible
    Codec ID : V_MPEGH/ISO/HEVC
    Duration : 1 h 37 min
    Bit rate : 25,3 Mb/s
    Šířka : 3 840pixely
    Výška : 1 606pixely
    Poměr stran : 2,40:1
    Frame rate mode : Constant
    Frame rate : 23,976 (24000/1001) FPS
    Color space : YUV
    Chroma subsampling : 4:2:0 (Type 2)
    Bit depth : 10 bits
    Bits/(Pixel*Frame) : 0.171
    Stream size : 17,1 GiB (73%)
    Enkódoval : x265 3.0_Au+10-74a8672ea4f7:[Windows][GCC 8.2.1][64 bit] 10bit
    Default : Ano
    Forced : Ne
    Color range : Limited
    Color primaries : BT.2020
    Transfer characteristics : PQ
    Matrix coefficients : BT.2020 non-constant
    Mastering display color primaries : Display P3
    Mastering display luminance : min: 0.0050 cd/m2, max: 4000 cd/m2
    Maximum Content Light Level : 1000 cd/m2
    Maximum Frame-Average Light Level : 216 cd/m2

    Audio #1
    ID : 2
    Formát : MLP FBA 16-ch
    Formát/Info : Meridian Lossless Packing FBA with 16-channel presentation
    Commercial name : Dolby TrueHD with Dolby Atmos
    Codec ID : A_TRUEHD
    Duration : 1 h 37 min
    Bit rate mode : Variable
    Bit rate : 4 224 kb/s
    Maximum bit rate : 7 821 kb/s
    Kanál(y) : 8 kanály
    Channel layout : L R C LFE Ls Rs Lb Rb
    Sampling rate : 48,0 kHz
    Frame rate : 1 200,000 FPS (40 SPF)
    Compression mode : Lossless
    Stream size : 2,86 GiB (12%)
    Jazyk : English
    Default : Ne
    Forced : Ne
    Number of dynamic objects : 11
    Bed channel count : 1 kanál
    Bed channel configuration : LFE

    Audio #2
    ID : 3
    Formát : DTS XLL
    Formát/Info : Digital Theater Systems
    Commercial name : DTS-HD Master Audio
    Codec ID : A_DTS
    Duration : 1 h 37 min
    Bit rate mode : Variable
    Bit rate : 3 834 kb/s
    Kanál(y) : 8 kanály
    Channel layout : C L R LFE Lb Rb Lss Rss
    Sampling rate : 48,0 kHz
    Frame rate : 93,750 FPS (512 SPF)
    Bit depth : 24 bits
    Compression mode : Lossless
    Stream size : 2,60 GiB (11%)
    Jazyk : English
    Default : Ne
    Forced : Ne

    Audio #3
    ID : 4
    Formát : AC-3
    Formát/Info : Audio Coding 3
    Commercial name : Dolby Digital
    Codec ID : A_AC3
    Duration : 1 h 37 min
    Bit rate mode : Constant
    Bit rate : 640 kb/s
    Kanál(y) : 6 kanály
    Channel layout : L R C LFE Ls Rs
    Sampling rate : 48,0 kHz
    Frame rate : 31,250 FPS (1536 SPF)
    Compression mode : Lossy
    Stream size : 444 MiB (2%)
    Jazyk : English
    Service kind : Complete Main
    Default : Ne
    Forced : Ne

    Audio #4
    ID : 9
    Formát : AC-3
    Formát/Info : Audio Coding 3
    Commercial name : Dolby Digital
    Codec ID : A_AC3
    Duration : 1 h 37 min
    Bit rate mode : Constant
    Bit rate : 640 kb/s
    Kanál(y) : 6 kanály
    Channel layout : L R C LFE Ls Rs
    Sampling rate : 48,0 kHz
    Frame rate : 31,250 FPS (1536 SPF)
    Compression mode : Lossy
    Stream size : 444 MiB (2%)
    Jazyk : Czech
    Service kind : Complete Main
    Default : Ano
    Forced : Ano

    Text #1
    ID : 5
    Formát : UTF-8
    Codec ID : S_TEXT/UTF8
    Codec ID/Info : UTF-8 Plain Text
    Duration : 47 min 28 s
    Bit rate : 4 b/s
    Count of elements : 85
    Stream size : 1,41 KiB (0%)
    Jazyk : English
    Default : Ne
    Forced : Ano

    Text #2
    ID : 6
    Formát : UTF-8
    Codec ID : S_TEXT/UTF8
    Codec ID/Info : UTF-8 Plain Text
    Duration : 1 h 18 min
    Bit rate : 13 b/s
    Count of elements : 341
    Stream size : 7,51 KiB (0%)
    Jazyk : English
    Default : Ne
    Forced : Ne

    Text #3
    ID : 7
    Formát : PGS
    Muxing mode : zlib
    Codec ID : S_HDMV/PGS
    Codec ID/Info : Picture based subtitle format used on BDs/HD-DVDs
    Duration : 1 h 35 min
    Bit rate : 6 432 b/s
    Count of elements : 671
    Stream size : 4,40 MiB (0%)
    Jazyk : Czech
    Default : Ne
    Forced : Ne

    Text #4
    ID : 8
    Formát : PGS
    Muxing mode : zlib
    Codec ID : S_HDMV/PGS
    Codec ID/Info : Picture based subtitle format used on BDs/HD-DVDs
    Duration : 1 h 35 min
    Bit rate : 957 b/s
    Count of elements : 169
    Stream size : 671 KiB (0%)
    Jazyk : Czech
    Default : Ne
    Forced : Ne

    Text #5
    ID : 10
    Formát : UTF-8
    Codec ID : S_TEXT/UTF8
    Codec ID/Info : UTF-8 Plain Text
    Duration : 1 h 35 min
    Bit rate : 2 b/s
    Count of elements : 90
    Stream size : 1,48 KiB (0%)
    Titul : forced
    Jazyk : Czech
    Default : Ano
    Forced : Ano

    Text #6
    ID : 11
    Formát : UTF-8
    Codec ID : S_TEXT/UTF8
    Codec ID/Info : UTF-8 Plain Text
    Duration : 1 h 35 min
    Bit rate : 10 b/s
    Count of elements : 330
    Stream size : 7,13 KiB (0%)
    Titul : full
    Jazyk : Czech
    Default : Ne
    Forced : Ne

    Text #7
    ID : 12
    Formát : PGS
    Muxing mode : zlib
    Codec ID : S_HDMV/PGS
    Codec ID/Info : Picture based subtitle format used on BDs/HD-DVDs
    Duration : 1 h 18 min
    Bit rate : 8 717 b/s
    Count of elements : 673
    Stream size : 4,87 MiB (0%)
    Jazyk : English
    Default : Ne
    Forced : Ne

    Menu #1
    00:00:00.000 : Chapter 01
    00:06:39.107 : Chapter 02
    00:12:16.110 : Chapter 03
    00:17:00.477 : Chapter 04
    00:26:28.169 : Chapter 05
    00:33:26.337 : Chapter 06
    00:38:06.409 : Chapter 07
    00:45:53.500 : Chapter 08
    00:51:17.949 : Chapter 09
    00:55:35.915 : Chapter 10
    01:02:21.070 : Chapter 11
    01:08:43.911 : Chapter 12
    01:16:31.920 : Chapter 13
    01:21:25.630 : Chapter 14
    01:28:13.329 : Chapter 15

    Menu #2
    00:00:00.000 : Chapter 01
    00:06:39.190 : Chapter 02
    00:12:16.319 : Chapter 03
    00:17:00.269 : Chapter 04
    00:26:28.170 : Chapter 05
    00:33:26.338 : Chapter 06
    00:38:06.701 : Chapter 07
    00:45:53.751 : Chapter 08
    00:51:18.033 : Chapter 09
    00:55:35.916 : Chapter 10
    01:02:21.279 : Chapter 11
    01:08:43.828 : Chapter 12
    01:16:31.921 : Chapter 13
    01:21:25.881 : Chapter 14
    01:28:12.996 : Chapter 15







    VDAKA ZA BODY a SEEDUJTE






    ONLINE

    CZ dabing






    CZ titulky


    Upozornenie:
    Ziadny zo zobrazených súborov sa nenachádza na tomto serveri. Server slúzi len k síreniu vlastnorucne vytvorených aplikácií, videí, hudby ai. Autori stránok nenesú ziadnu zodpovednost za zverejnené odkazy, komentáre a obsah súborov. Vsetky komentáre, odkazy, súbory ktoré by svojou povahou mohli byt v rozpore zo zákonmi sem vkladáte na vlastnú zodpovednost. Autori stránok si vyhradzujú právo cenzúry odkazov, komentárov príp. súborov, ktoré by svojou povahou mohli byt v rozpore zo zákonmi a dobrými mravmi. Dodrzujte pravidlá!





    0
    lantern
    Ratio 0.03

    Clen

    27/08/2021 09.55.08
    Ahoj, prosím o seeed

    0
    PePiG7
    Ratio 1.68

    Member+

    29/07/2021 23.28.36
    Zdravim
    Jsem zacatecnik s 4K ripama. Jaky rozdil je mezi 50GB a 25GB verzi stejneho filmu v UHD kategorii? Predem diky za odpoved.


    --------------
    >> 29/07/2021 23.43.01
    UPLOADER: Nazdar
    50GB verzia je vacsinou REMUX - kde su z BluRay disku vyextrahovane video/zvukove stopy + titulky a prekonvertovane do .mkv suboru

    25GB verzia su vyextrahovane video/zvukove stopy + titulky. Ponechane su vacsinou max 2/3 zvukove stopy, subor je enkodovany a ulozeny v kodeku x265 - co je kompresia suboru o 40-50% pri absolutnej zachovani kvality.
    Preto je film mensi, lebo ma menej zvukovy stop a je komprimovany
    Ak som sa niekde pomylil, tak ma isto opravia


    --------------
    >> 30/07/2021 02.00.10
    PePiG7: Dobre chapu, ale radsi se ujistim. To znamena , ze video neztraci na kvalite? Protoze vidim nektere filmy s rozlisenim 3840x2160 a nektere 3840x1600?  


    --------------
    >> 30/07/2021 17.30.25
    UPLOADER: hej, to rozlisenie nema s kvalitou nic spolocne... 3840 x 2160 budes mat pekne na celu obrazovku, 3840 x 1600 budes mat cierne pruhy hore aj dole.  


    --------------
    >> 31/07/2021 10.36.28
    PePiG7: Jeste jednou diky za vysvetleni.


    --------------
    >> 31/07/2021 20.26.26
    UPLOADER: nemas zac, dufam, ze som nepisal somariny

    0
    Divy
    Ratio 1163.89

    VIP

    26/07/2021 20.08.22
    ty seš borec neverim nechtel sem stahovat 50gb stahnul sem 1080p 15gb a ty borce tady daš 4k co ma 25gb neverim očim máš umne veliky plus


    --------------
    >> 26/07/2021 20.55.46
    UPLOADER: Rado sa stalo kamo
    Velke subory davam bud na poziadanie, alebo ked je to nieco fakt EXTRA a hlavne pre rozmaznanych uzivatelov!


    Back

    Na serveru se nenalézají zádne soubory. Za odkazy jsou výhradně zodpovědní uzivatelé a návstěvníci tohoto trackeru. Administrátor není zodpovědný za pridaný obsah ani za skody zpusobené uzivateli. Rozsirovat stránku nebo její obsah bez souhlasu ownera je zakázano. Nesmíte pouzívat tuto webovou stránku pro distribuovaní nebo download zádného materiálu pokud nemáte povolení od príslusného vlastníka práv. Uzivatelé jsou zodpovědní za dodrzování těchto pravidel a podmínek. Owner má právo kdykoliv změnit pravidla tohoto trackeru.

    [ Script trval: 0.044 sec. ] - [ GZIP: enabled ]
    Je zhruba 16:07

    TOPlist