Tvoj účet nieje VIP.
Preto sú tvoje funkcie a možnosti značne obmedzené.
Pre aktiváciu VIP klikni sem.

Tlapkova patrola / Labkova patrola / PAW Patrol S01E01 (2013)(SK/EN)[WEB-DL][1080p] = CSFD 53% | SkTorrent.eu

Cz-SkTorrent open Tracker, na volné zdieľanie súborov. Pridajte sa k našej komunite a získajte prístup k tisícom torrentov.

  • vysoká rýchlosť
  • úplne zdarma
  • prevažne Slovenská a Česká scéna
  • ste tu s nami už 10 rokov - Ďakujeme
  • Vitaj Guest (Login) Ako stahovat
    torrenty?
    Torrenty:
    v1 textová
    v2 obrázková
    Ako sa stat
    Uploaderom
    Online
    Filmy
    Forum
    Pravidlá
    SkTSocial
    BitTorrent
    klient
    Meno: Heslo:
    Zaregistrovat
    Po zaregistrovaní mozte volne stahovat
    Zabudol som heslo

    Tlapkova patrola / Labkova patrola / PAW Patrol S01E01 (2013)(SK/EN)[WEB-DL][1080p] = CSFD 53% Názov:Tlapkova patrola / Labkova patrola / PAW Patrol S01E01 (2013)(SK/EN)[WEB-DL][1080p] = CSFD 53% Hodnocení: Stiahnut
    Pozriet Online
    Kategória:Seriál - Velikost:229.3 MB BitTorrent klient
    Pridaný: Súbory:
    Skontrolován:2024-02-11 Peerov:2 (Seed: 2, Leech: 0)
    Zaner:Akcni,Animovany,Komedie,Rodinny Uploader:Uvidis, az ked budes
    VIP
    Kúp nám Pivo 1,10€

    Kúp nám Pivo

    Pridaj do zalozky
    Pridaj do zalozky




    Jazyk:
    Slovensky, Anglicky
    Titulky:
    Slovensky (forced), Anglicky (full)
    Animovaný / Akčný / Komédia / Rodinný
    Kanada / USA, (2013–2023), 23 min
    ČSFD:
    https://www.csfd.cz/film/358219-tlapkova-patrola/prehled/

    Obsah:
    Desaťročný Ryder vedie svorku odvážnych psích záchranárov známu ako Labková patrola. Každé zo šiestich šteniatok dokáže zvládnuť náročnú a zodpovednú profesiu sveta dospelých - policajt Chase, hasič Marshall, technik Rubble, mechanik Rocky, vodný záchranár Zuma a letecká záchranárka Skye. Spoločne plnia zamotané úlohy, aby svojmu pobrežnému mestečku pomohli z akejkoľvek šlamastiky. Či už je to mačka na strome alebo vykoľajený vlak, vždy nájdu spôsob, ako pomôcť tým, ktorí to potrebujú. Labková patrola dokazuje, že žiadna úloha nie je príliš veľká a žiadne šteňa príliš malé na to, aby ju dokázalo splniť. Divákom všetkých vekových kategórií udeľujú lekcie, ako riešiť technické a spoločenské problémy.

    MediaInfo:
    Hlavné parametre
    Unique ID                                : 260399447073414922360809522302456603538 (0xC3E71BF8992110AE66D29E0A328EA392)
    Celý názov a cesta                       : E:\Labkova.patrola.Tlapkova.patrola.PAW.Patrol.S01E01.WEB-DL.SK.EN.Dabing.wrweedw.mkv
    Formát                                   : Matroska
    Format version                           : Version 4
    Veľkosť súboru                           : 229 MiB
    Trvanie                                  : 23 min 20 sek.
    Celkový dátový tok                       : 1 374 kb/s
    Frekvencia snímok                        : 23,976 snímok/sek.
    Názov filmu                              : Labková patrola 1x01 by wrweedw
    Dátum zakódovania                        : 2024-02-11 16:34:22 UTC
    Použitý software                         : mkvmerge v82.0 ('I'm The President') 64-bit
    Zakódoval                                : libebml v1.4.5 + libmatroska v1.7.1

    Video
    ID                                       : 1
    Formát                                   : AVC
    Formát/Info                              : Advanced Video Codec
    Profil formátu                           : High@L4.1
    Nastavenia formátu                       : CABAC / 1 Ref Frames
    Format settings, CABAC                   : Áno
    Format settings, Reference frames        : 1snímka
    Označenie kodeku                         : V_MPEG4/ISO/AVC
    Trvanie                                  : 23 min 20 sek.
    Dátový tok                               : 1 023 kb/s
    Šírka                                    : 1 920 pixelov
    Výška                                    : 1 080 pixelov
    Pomer strán                              : 16:9
    Režim frekvencie snímok                  : Konštantný
    Frekvencia snímok                        : 23,976 (24000/1001) snímok/sek.
    Color space                              : YUV
    Chroma subsampling                       : 4:2:0
    Bit depth                                : 8 bitov
    Scan type                                : Progresívne
    Bitov/(Bod*Snímka)                       : 0.021
    Stream size                              : 171 MiB (74%)
    Titul                                    : WEB-DL by wrweedw
    Zakódoval                                : x264 core 155 r2901 7d0ff22
    Nastavenie kodéru                        : cabac=1 / ref=1 / deblock=1:4:4 / analyse=0x3:0x133 / me=umh / subme=11 / psy=0 / mixed_ref=0 / me_range=32 / chroma_me=1 / trellis=2 / 8x8dct=1 / cqm=0 / deadzone=21,11 / fast_pskip=1 / chroma_qp_offset=-4 / threads=48 / lookahead_threads=4 / sliced_threads=0 / nr=0 / decimate=1 / interlaced=0 / bluray_compat=0 / constrained_intra=0 / bframes=0 / weightp=2 / keyint=240 / keyint_min=24 / scenecut=100 / intra_refresh=0 / rc_lookahead=32 / rc=crf / mbtree=1 / crf=27.8 / qcomp=0.60 / qpmin=0 / qpmax=69 / qpstep=4 / ip_ratio=1.20 / aq=3:1.20
    Jazyk                                    : Anglicky
    Default                                  : Áno
    Forced                                   : Nie
    Color range                              : Limited
    Color primaries                          : BT.709
    Transfer characteristics                 : BT.709
    Matrix coefficients                      : BT.709

    Audio #1
    ID                                       : 2
    Formát                                   : AAC LC
    Formát/Info                              : Advanced Audio Codec Low Complexity
    Označenie kodeku                         : A_AAC-2
    Trvanie                                  : 23 min 20 sek.
    Dátový tok                               : 188 kb/s
    Kanál(y)                                 : 2 kanály
    Channel layout                           : L R
    Sampling rate                            : 48,0 kHz
    Frekvencia snímok                        : 46,875 snímok/sek. (1024 SPF)
    Compression mode                         : Lossy
    Stream size                              : 31,4 MiB (14%)
    Titul                                    : Slovak 2.0
    Jazyk                                    : Slovensky
    Default                                  : Áno
    Forced                                   : Nie

    Audio #2
    ID                                       : 3
    Formát                                   : AAC LC
    Formát/Info                              : Advanced Audio Codec Low Complexity
    Označenie kodeku                         : A_AAC-2
    Trvanie                                  : 23 min 20 sek.
    Dátový tok                               : 160 kb/s
    Kanál(y)                                 : 2 kanály
    Channel layout                           : L R
    Sampling rate                            : 48,0 kHz
    Frekvencia snímok                        : 46,875 snímok/sek. (1024 SPF)
    Compression mode                         : Lossy
    Video delay                              : -21 ms
    Stream size                              : 26,7 MiB (12%)
    Titul                                    : English 2.0
    Jazyk                                    : Anglicky
    Default                                  : Áno
    Forced                                   : Nie

    Text #1
    ID                                       : 4
    Formát                                   : UTF-8
    Označenie kodeku                         : S_TEXT/UTF8
    Označenie kodeku/Info                    : UTF-8 Plain Text
    Trvanie                                  : 38 sek. 122 ms
    Dátový tok                               : 115 b/s
    Frekvencia snímok                        : 0,525 snímok/sek.
    Count of elements                        : 20
    Stream size                              : 552 Byty (0%)
    Titul                                    : Slovak Forced
    Jazyk                                    : Slovensky
    Default                                  : Áno
    Forced                                   : Nie

    Text #2
    ID                                       : 5
    Formát                                   : UTF-8
    Označenie kodeku                         : S_TEXT/UTF8
    Označenie kodeku/Info                    : UTF-8 Plain Text
    Trvanie                                  : 22 min 39 sek.
    Dátový tok                               : 63 b/s
    Frekvencia snímok                        : 0,377 snímok/sek.
    Count of elements                        : 512
    Stream size                              : 10,6 kiB (0%)
    Titul                                    : English
    Jazyk                                    : Anglicky
    Default                                  : Áno
    Forced                                   : Nie

    Nemusi to skvelo sediet, ale aspon nieco.
    Som pasiv, pozor na to!









    edyyysvk,

    + Pridaj vlastnu verziu tohto torrentu +


    Upozornenie:
    Ziadny zo zobrazených súborov sa nenachádza na tomto serveri. Server slúzi len k síreniu vlastnorucne vytvorených aplikácií, videí, hudby ai. Autori stránok nenesú ziadnu zodpovednost za zverejnené odkazy, komentáre a obsah súborov. Vsetky komentáre, odkazy, súbory ktoré by svojou povahou mohli byt v rozpore zo zákonmi sem vkladáte na vlastnú zodpovednost. Autori stránok si vyhradzujú právo cenzúry odkazov, komentárov príp. súborov, ktoré by svojou povahou mohli byt v rozpore zo zákonmi a dobrými mravmi. Dodrzujte pravidlá!





    0
    edyyysvk
    Ratio 0.1

    Clen

    12/02/2024 20.09.39
    Dalsi diel prosim idealne celu seriu dakujem


    --------------
    >> 13/02/2024 07.33.30
    UPLOADER: Budem to pridávať postupne, dabing kým zozenies
    Uploader
    12/02/2024 18.27.50
    Prvych 30 ludi co to stiahne bude seedovat!!!
    https://www.uschovna.cz/zasilka/OFJMGSRUB74U2IK7-P5K/
    Tuto to mate aby ste seedovali

    0
    robert19791979
    Ratio 0.08

    Clen

    12/02/2024 09.51.01
    Budu aj ostatne diely a serie po slovensky? Mam komplet 1.,2.,3. seriu zo stvrtej mi chyba par dielov a z 5tej mam len asi 4 diely myslim. Nie som si isty ale myslim ze slovaci nemaju viac nadabovane. Len po 6tu seriu asi…


    --------------
    >> 12/02/2024 17.18.52
    UPLOADER: Mozes mi poslat 5. seriu tie 4 diely? napis mi do pz (nick: wrweedw) [piatu seriu tazko zohnat, tak mi daj aspon tu z jojky]

    0
    lipo5uo200
    Ratio 1

    VIP

    11/02/2024 18.57.44
    Dobrý večer Dokázali by ste zohnať tieto Seriály ? ak áno tak mi dajte vedieť (Ďakujem)

    Labková patrola (Všetky Série od 1-9) SK
    Dráčik Tabaluga (1997) SK
    Dobrodružstvá myšiek (1997) SK
    Priatelia Toma a Jerryho (1990) SK
    Fix a Foxi (1999) SK
    Rodinka líšok a jazvecov (2016) SK
    Upovídaný Tom a přátelé (2014) CZ
    Příběhy králíčka Petra (2012) CZ



    --------------
    >> 12/02/2024 17.17.30
    UPLOADER: Serii po slovensky paw patroly je len 5, 4 pridam po dieloch (kazdy den dalsi diel)


    --------------
    >> 12/02/2024 18.17.51
    robert19791979: 6-ta seria bola nedavno na jojke…takze tak


    --------------
    >> 12/02/2024 18.22.01
    UPLOADER: nie, to bola piata som sa teraz dival


    --------------
    >> 12/02/2024 20.59.40
    robert19791979: Zle si sa dival, lebo ja som pozeral 6tu na jojke s detmi nedavno…ano teraz dali zase piatu ale uz bola aj siesta tam..100%


    --------------
    >> 13/02/2024 16.19.57
    UPLOADER: ak mas tak mi posli. budem ti vdacny


    Back

    Na serveru se nenalézají zádne soubory. Za odkazy jsou výhradně zodpovědní uzivatelé a návstěvníci tohoto trackeru. Administrátor není zodpovědný za pridaný obsah ani za skody zpusobené uzivateli. Nesmíte pouzívat tuto webovou stránku pro distribuovaní nebo download zádného materiálu pokud nemáte povolení od príslusného vlastníka práv. Uzivatelé jsou zodpovědní za dodrzování těchto pravidel a podmínek. Owner má právo kdykoliv změnit pravidla tohoto trackeru.

    [ Script trval: 0.304 sec. ] - [ GZIP: enabled ]
    Je zhruba 18:22
    sql

    TOPlist