Tvoj účet nieje VIP.
Preto sú tvoje funkcie a možnosti značne obmedzené.
Pre aktiváciu VIP klikni sem.

To byl zitra flam / Hot Tub Time Machine (2010)(CZ) = CSFD 61% | SkTorrent.eu

Cz-SkTorrent open Tracker, na volné zdielanie súborov. Pridajte sa k nasej komunite a získajte pristup k tisícom torrentov.

  • vysoká rýchlost
  • úplne zdarma
  • prevazne Slovenska a Ceska scena
  • ste tu s nami uz 5 rokov - Dakujeme
  • Vitaj Guest (Login) Ako stahovat
    torrenty?
    Torrenty:
    v1 textová
    v2 obrázková
    v3 online filmy
    Ako sa stat
    Uploaderom
    Online
    Filmy
    Forum
    Pravidlá
    BitTorrent
    klient
    Meno: Heslo:
    Zaregistrovat
    Po zaregistrovaní mozte volne stahovat
    Zabudol som heslo

    Torrent's details
    To byl zitra flam / Hot Tub Time Machine (2010)(CZ) = CSFD 61% Názov:To byl zitra flam / Hot Tub Time Machine (2010)(CZ) = CSFD 61% Hodnocení: Stiahnut
    Pozriet Online
    Kategória:Filmy CZ/SK dabing Velikost:700.4 MB BitTorrent klient
    Pridaný: Súbory:
    Skontrolován:2014-02-18 Peerov:0 (Seed: 0, Leech: 0)
    Zaner:Dobrodruzny,Komedie,Sci-Fi Uploader:Uvidis, az ked budes
    VIP
    Kúp nám Pivo 1,10€

    Kúp nám Pivo
    Podporte nas na Facebooku !
    Pridaj do zalozky
    Pridaj do zalozky





    Jazyk: cz
    Titulky: nie
    Kvalita zvuku: MPEG Audio
    Kvalita videa: MPEG-4 Visual
    Odkaz na CSFD: http://www.csfd.cz/film/248680-to-byl-zitra-flam/
    Rok vydání: 2010
    Délka: 1h 34mn
    Obal:

    Žánr: Komedie / Sci-Fi
    Screen:


    Obsah:

    Čtyři kamarádi ze studentských let, zklamaní svým současným životem, se rozhodnou připomenout si bezstarostné dny a oživit ideály z mládí. Netuší ovšem, že se jim jejich přání splní, a že dostanou šanci svou budoucnost ovlivnit. Po bouřlivém večírku se ocitnou v roce 1986 a jejich „současný“ život začíná... podruhé. Originální komedie neotřelým způsobem nahlíží na zklamání a opětovné naděje zpackaného života. John Cusack (Identita, Lásce na stopě), Rob Corddry (The Daily Show With Jon Stewart) a Craig Robinson (Kancl, Noc v muzeu) vás přesvědčí, že na změnu není nikdy pozdě!

    infoGeneral
    Complete name: C: o.byl.zitra.flam.2010.dvdrip.xvid.cz.my.avi
    Format: AVI
    Format/Info: Audio Video Interleave
    File size: 700 MiB
    Duration: 1h 34mn
    Overall bit rate: 1 033 Kbps
    Writing application: VirtualDubMod 1.5.4.1 (build 2178/release)
    Writing library: VirtualDubMod build 2178/release

    Video
    ID: 0
    Format: MPEG-4 Visual
    Format profile: AdvancedSimple@L5
    Format settings, BVOP: Yes
    Format settings, QPel: No
    Format settings, GMC: No warppoints
    Format settings, Matrix: Custom
    Codec ID: XVID
    Codec ID/Hint: XviD
    Duration: 1h 34mn
    Bit rate: 897 Kbps
    Width: 640 pixels
    Height: 352 pixels
    Display aspect ratio: 16:9
    Frame rate: 25.000 fps
    Resolution: 24 bits
    Colorimetry: 4:2:0
    Scan type: Progressive
    Bits/(Pixel*Frame): 0.159
    Stream size: 609 MiB (87%)
    Writing library: XviD 1.2.1 (UTC 2008-12-04)

    Audio
    ID: 1
    Format: MPEG Audio
    Format version: Version 1
    Format profile: Layer 3
    Codec ID: 55
    Codec ID/Hint: MP3
    Duration: 1h 34mn
    Bit rate mode: Constant
    Bit rate: 128 Kbps
    Channel(s): 2 channels
    Sampling rate: 48.0 KHz
    Resolution: 16 bits
    Stream size: 86.8 MiB (12%)
    Alignment: Aligned on interleaves
    Interleave, duration: 80 ms (2.00 video frames)
    Interleave, preload duration: 504 ms
    Writing library: LAME3.98r
    Encoding settings: -m j -V 4 -q 2 -lowpass 17 -b 128








    Upozornenie:
    Ziadny zo zobrazených súborov sa nenachádza na tomto serveri. Server slúzi len k síreniu vlastnorucne vytvorených aplikácií, videí, hudby ai. Autori stránok nenesú ziadnu zodpovednost za zverejnené odkazy, komentáre a obsah súborov. Vsetky komentáre, odkazy, súbory ktoré by svojou povahou mohli byt v rozpore zo zákonmi sem vkladáte na vlastnú zodpovednost. Autori stránok si vyhradzujú právo cenzúry odkazov, komentárov príp. súborov, ktoré by svojou povahou mohli byt v rozpore zo zákonmi a dobrými mravmi. Dodrzujte pravidlá!


    No comments...


    Back

    Na serveru se nenalézají zádne soubory. Za odkazy jsou výhradně zodpovědní uzivatelé a návstěvníci tohoto trackeru. Administrátor není zodpovědný za pridaný obsah ani za skody zpusobené uzivateli. Rozsirovat stránku nebo její obsah bez souhlasu ownera je zakázano. Nesmíte pouzívat tuto webovou stránku pro distribuovaní nebo download zádného materiálu pokud nemáte povolení od príslusného vlastníka práv. Uzivatelé jsou zodpovědní za dodrzování těchto pravidel a podmínek. Owner má právo kdykoliv změnit pravidla tohoto trackeru.

    [ Script trval: 0.028 sec. ] - [ GZIP: enabled ]
    BtiTracker (1.4.8) by Btiteam
    Je zhruba 14:46

    TOPlist