Tvoj účet nieje VIP.
Preto sú tvoje funkcie a možnosti značne obmedzené.
Pre aktiváciu VIP klikni sem.

Top Gear - Specialy (CZ)[TvRip] = CSFD 88% | SkTorrent.eu

Cz-SkTorrent open Tracker, na volné zdielanie súborov. Pridajte sa k nasej komunite a získajte pristup k tisícom torrentov.

  • vysoká rýchlost
  • úplne zdarma
  • prevazne Slovenska a Ceska scena
  • ste tu s nami uz 5 rokov - Dakujeme
  • Vitaj Guest (Login) Ako stahovat
    torrenty?
    Torrenty:
    v1 textová
    v2 obrázková
    v3 online filmy
    Ako sa stat
    Uploaderom
    Online
    Filmy
    Forum
    Pravidlá
    BitTorrent
    klient
    Meno: Heslo:
    Zaregistrovat
    Po zaregistrovaní mozte volne stahovat
    Zabudol som heslo

    Torrent's details
    Top Gear - Specialy (CZ)[TvRip] = CSFD 88% Názov:Top Gear - Specialy (CZ)[TvRip] = CSFD 88% Hodnocení:N/A Stiahnut
    Pozriet Online
    Kategória:Seriál Velikost:10.5 GB BitTorrent klient
    Pridaný: Súbory:
    Skontrolován:2015-12-10 Peerov:0 (Seed: 0, Leech: 0)
    Zaner:Dokumentarny,Komedie,Sportovni,Talk-show Uploader:Uvidis, az ked budes
    VIP
    Kúp nám Pivo 1,10€

    Kúp nám Pivo
    Podporte nas na Facebooku !
    Pridaj do zalozky
    Pridaj do zalozky




    Top Gear Speciály díly (2007-2014) (CZ)TvRip


    Jazyk: CZ
    Titulky: Ne
    Odkaz na CSFD: http://www.csfd.cz/film/219338-top-gear/
    Kvalita videa: viz. MediaInfo
    Kvalita zvuku: viz. MediaInfo
    Rok vydání: 2007 - 2014

    Délka:
    Americký: 52 minut
    Apokalypsa: 73 minut
    Barma (1. a 2.část): 63 minut a 62 minut
    Bostwanský: 51 minut
    Indický: 87 minut
    Jižní Amerika: 76 minut
    Olympijský: 48 minut
    Patagonský speciál (1. a 2.část): 62 minut a 63 minut
    Polární: 51 minut
    Pramen Nilu (1. a 2.část): 59 minut a 57 minut
    Speciál ze středního východu: 76 minut
    Vietnamský: 73 minut

    Žánr: Dokumentární / Sportovní / Talk-show / Komedie

    Screen
    Americký + popis dílu



    Odkaz na csfd: http://www.csfd.cz/film/352792-top-gear-us-special

    V tomto speciálu se Jeremy, Richard a James pokusí zjistit, zda je levnější si na poznávání Spojených států během jednoho týdne koupit ojeté auto v hodnotě 1000 dolarů nebo si auto půjčit? Po prohlédnutí několika najmizernejších autobazarů v Miami si nakonec tři pánové vyberou svá auta. Jeremy Clarkson jako obvykle vsadí na sílu a obstará si Chevrolet Camaro RS z roku 1991. Richard Hammond vezme klasiku pro Americký jih Dodge Ram 150 pickup také z roku 1991 a James May zvolí americké specifikum - obrovský Cadillac Brougham z roku 1989. Úkol zní: projít v těchto vykopávkách trasu z Miami do New Orleans av cíli své auto prodat za co nejvýhodnější částku

    Apokalypsa + popis dílu


    Odkaz na csfd: http://www.csfd.cz/film/292060-top-gear-apokalypsa/prehled/
    Chlapci z Top Gearu to zase rozjíždějí, tentokrát jen jako duo ve složení Richard Hammond a James May. Jak by na tom byl svět, konkrétně motorismus, v post-apokalyptickém světě? Jak se dostat autem do práce v nukleární zimě? Do kterého auta nalít poslední benzín? Nejen tyto, ale mnoho dalších životně důležitých otázek bude zodpovězeno.

    Barma (1. a 2.část) + popis dílu



    Odkaz na csfd: http://www.csfd.cz/film/368570-top-gear-the-burma-special/prehled/
    Jeremy Clarkson, James May a Richard Hammond musejí projet celou Barmu, aby postavili most přes řeku Kwai. Toto epické dobrodružství musejí absolvovat pomocí třech ojetých náklaďáků, které mají koupit přes internet za pár liber.

    Bostwanský + popis dílu


    Odkaz na csfd: http://www.csfd.cz/film/352786-top-gear-botswansky-special/prehled/
    V tomto exotickom SPECIALI si moderátorské trojice Jeremy Clarkson, Richard Hammond James May trúfnu vycestovať dělat africkej Botswany, ABY tu tak svojimi Troma autami z druhej ruky, podľa vlastného výberu av hodnote 1.500 libier, započali dobrodružnú cestu dlhu 1000 mil. Štartovacia Ciara leží na hranici, takže Zimbabwe Ciel Až v ďalekej Namíbii.

    Indický + popis dílu


    Odkaz na csfd: http://www.csfd.cz/film/337692-top-gear-indicky-special/prehled/
    Další ze série speciálů v rámci známého motoristického pořadu. Tentokrát natáčela a řídila vše možné známá trojice ztřštěných moderátorů v daleké Indii. Opět přijde řada na naprosto netradiční disciplíny okořeněné správnou dávkou britského humoru. Čeká vás soutěž v rozvozu jídel pomocí automobilu a vlaku nebo "vylepšení" vlakových souprav prostřednictvím reklamních billboardů. Došlo také na klasický motoristický závod starými vozy za účasti místních, kteří se závodu účastnili v tom nejroztodivnějším, co se na indických silnicích vůbec může objevit

    Jižní Amerika + popis dílu

    Jeremy, Richard a James se pokusí projet džungli, nejsušší místo na zemi, překonat Andy a dojet k Tichému oceánu.

    Olympijský + popis dílu


    Odkaz na csfd: http://www.csfd.cz/film/352787-top-gear-olympijsky-special/prehled/
    Jeremy, Richard a James si to namířili do Lillehammeru, kde si společně vymysleli disciplíny, s pomocí kterých si v tomto norském městě mohou uspořádat své vlastní zimní olympijské hry. Všechny disciplíny mají ale cosi společného. Jejich společným prvkem jsou auta. Motivace nikomu z nich opravdu nechybí; poražený totiž dostane za úkol vychutnat si žlutý sníh.

    Patagonský speciál (1. a 2.část) + popis dílu



    Odkaz na csfd: http://www.csfd.cz/film/400900-top-gear-patagonsky-special/prehled/
    Na počest motorů V8 vyráží trojice moderátorů pod vedením Jeremyho Clarksona v ojetých vozech s těmito motory napříč Argentinou do nejjižnějšího města světa - Ushuaiy. Čeká je 2400 km přes Andy až do Ohňové země...
    Dnes se ocitneme v Argentině ve městě Bariloche, kam přijíždí trojice moderátorů a vydává se na dlouhou cestu. Při té by rádi uctili mizející motory V8, proto použijí tři ojetiny právě s těmito motory. Jeremy přijíždí s nadčasovým Porsche 928 GT, Richard s poněkud přehnaným a jasně zeleným Fordem Mustang Mach1 a James překvapivě s rudým dvouturbovým Lotusem Esprit. Před jízdou si zkritizují vozy, poté míří do 210 km vzdáleného domu, kde se ukrýval Butch Cassidy. Užívají si krajinu, silnice a své vozy, čeká je ale nelehká cesta plná nástrah a problémů

    Polární + popis dílu


    Odkaz na csfd: http://www.csfd.cz/film/303456-top-gear-polarni-special/prehled/
    Jeremy Clarkson, James May se pokusí překonat severní pól v jeepu Toyota Hilux. Richard Hammond se rozhodne cestu absolvovat se psím spřežením

    Pramen Nilu (1. a 2.část) + popis dílu



    Odkaz na csfd: http://www.csfd.cz/film/337693-top-gear-africa-special-part-1/prehled/
    Odkaz na csfd: http://www.csfd.cz/film/337694-top-gear-africa-special-part-2/prehled/
    Jeremy Clarkson, James May a Richard Hammond se v Africe pokusí nalézt skutečný pramen Nilu za pomoci tří velmi levných aut. Cestou se budou muset vypořádat jak s tamními nástrahami, tak se vzájemnou rivalitou.
    Pokračovaní speciálního dílu Top Gear: Africa Special, Part 1 , kde se Jeremy Clarkson, James May a Richard Hammond pokusí v Africe nalézt skutečný pramen Nilu za pomoci tří velmi levných aut. Do poslední chvíle se stupňují nejen nástrahy drsné Afriky, ale i vzájemná rivalita.

    Speciál ze středního východu + popis dílu

    Jeremy, Richard a James se pokusili jet z Iráku do Betléma v kabrioletech jako Tři králové.

    Vietnamský + popis dílu


    Odkaz na csfd: http://www.csfd.cz/film/352793-top-gear-vietnam-special/komentare/
    Zemi, kterou se nepovedlo dobýt Američanům, projet v zakoupených autech.

    Popis celého seriálu: Z původně obyčejného auto-moto pořadu se díky obrovské divácké úspěšnosti stala komediálně laděná televizní série z produkce BBC, zabývající se přehlídkou, předváděním a úpravou různých automobilů, zpravidla těch novějších a velmi výkonných.

    Americký
    Format: AVI
    Format/Info: Audio Video Interleave
    File size: 379 MiB
    Duration: 52mn 0s
    Overall bit rate: 1 019 Kbps

    Video
    ID: 0
    Format: MPEG-4 Visual
    Format profile: Advanced Simple@L5
    Format settings, BVOP: 2
    Format settings, QPel: Yes
    Format settings, GMC: No warppoints
    Format settings, Matrix: Default (MPEG)
    Codec ID: XVID
    Codec ID/Hint: XviD
    Duration: 52mn 0s
    Bit rate: 877 Kbps
    Width: 624 pixels
    Height: 352 pixels
    Display aspect ratio: 16:9
    Frame rate: 25.000 fps
    Color space: YUV
    Chroma subsampling: 4:2:0
    Bit depth: 8 bits
    Scan type: Progressive
    Compression mode: Lossy
    Bits/(Pixel*Frame): 0.160
    Stream size: 326 MiB (86%)
    Writing library: XviD 1.2.0.dev47 (UTC 2006-11-01)

    Audio
    ID: 1
    Format: MPEG Audio
    Format version: Version 1
    Format profile: Layer 3
    Codec ID: 55
    Codec ID/Hint: MP3
    Duration: 52mn 0s
    Source duration: 52mn 0s
    Bit rate mode: Constant
    Bit rate: 128 Kbps
    Channel(s): 2 channels
    Sampling rate: 48.0 KHz
    Compression mode: Lossy
    Stream size: 47.6 MiB (13%)
    Alignment: Split accross interleaves
    Interleave, duration: 24 ms (0.60 video frame)
    Writing library                : LAME3.98ŞŞš+„‘gIŔ¨y

    Apokalypsa
    Format: AVI
    Format/Info: Audio Video Interleave
    File size: 700 MiB
    Duration: 1h 13mn
    Overall bit rate: 1 338 Kbps
    Writing application: Lavf51.12.1

    Video
    ID: 0
    Format: MPEG-4 Visual
    Format profile: Simple@L1
    Format settings, BVOP: No
    Format settings, QPel: No
    Format settings, GMC: No warppoints
    Format settings, Matrix: Default (H.263)
    Codec ID: DX50
    Codec ID/Hint: DivX 5
    Duration: 1h 13mn
    Bit rate: 1 197 Kbps
    Width: 720 pixels
    Height: 400 pixels
    Display aspect ratio: 16:9
    Frame rate: 29.970 fps
    Color space: YUV
    Chroma subsampling: 4:2:0
    Bit depth: 8 bits
    Scan type: Progressive
    Compression mode: Lossy
    Bits/(Pixel*Frame): 0.139
    Stream size: 626 MiB (89%)
    Writing library: Lavc51.40.4

    Audio
    ID: 1
    Format: MPEG Audio
    Format version: Version 1
    Format profile: Layer 3
    Mode: Joint stereo
    Mode extension: MS Stereo
    Codec ID: 55
    Codec ID/Hint: MP3
    Duration: 1h 13mn
    Bit rate mode: Constant
    Bit rate: 128 Kbps
    Channel(s): 2 channels
    Sampling rate: 44.1 KHz
    Compression mode: Lossy
    Stream size: 67.0 MiB (10%)
    Alignment: Aligned on interleaves
    Interleave, duration: 26 ms (0.78 video frame)
    Interleave, preload duration: 26 ms
    Writing library                : LAME3.97

    Barma (1.část)
    Format: AVI
    Format/Info: Audio Video Interleave
    File size: 772 MiB
    Duration: 1h 3mn
    Overall bit rate: 1 709 Kbps
    Writing application: Lavf55.12.100

    Video
    ID: 0
    Format: xvid
    Codec ID: xvid
    Duration: 1h 3mn
    Bit rate: 1 568 Kbps
    Width: 720 pixels
    Height: 400 pixels
    Display aspect ratio: 16:9
    Frame rate: 25.000 fps
    Bits/(Pixel*Frame): 0.218
    Stream size: 709 MiB (92%)

    Audio
    ID: 1
    Format: MPEG Audio
    Format version: Version 1
    Format profile: Layer 3
    Mode: Joint stereo
    Mode extension: MS Stereo
    Codec ID: 55
    Codec ID/Hint: MP3
    Duration: 1h 3mn
    Bit rate mode: Constant
    Bit rate: 128 Kbps
    Channel(s): 2 channels
    Sampling rate: 44.1 KHz
    Compression mode: Lossy
    Stream size: 57.8 MiB (7%)
    Alignment: Aligned on interleaves
    Interleave, duration           : 26 ms (0.65 video frame)

    Barma (2.část)
    Format: AVI
    Format/Info: Audio Video Interleave
    File size: 759 MiB
    Duration: 1h 2mn
    Overall bit rate: 1 700 Kbps
    Writing application: Lavf55.12.100

    Video
    ID: 0
    Format: xvid
    Codec ID: xvid
    Duration: 1h 2mn
    Bit rate: 1 560 Kbps
    Width: 720 pixels
    Height: 400 pixels
    Display aspect ratio: 16:9
    Frame rate: 25.000 fps
    Bits/(Pixel*Frame): 0.217
    Stream size: 696 MiB (92%)

    Audio
    ID: 1
    Format: MPEG Audio
    Format version: Version 1
    Format profile: Layer 3
    Mode: Joint stereo
    Codec ID: 55
    Codec ID/Hint: MP3
    Duration: 1h 2mn
    Bit rate mode: Constant
    Bit rate: 128 Kbps
    Channel(s): 2 channels
    Sampling rate: 44.1 KHz
    Compression mode: Lossy
    Stream size: 57.2 MiB (8%)
    Alignment: Aligned on interleaves
    Interleave, duration           : 26 ms (0.65 video frame)

    Bostwanský
    Format: AVI
    Format/Info: Audio Video Interleave
    File size: 546 MiB
    Duration: 51mn 27s
    Overall bit rate: 1 484 Kbps
    Movie name: Top Gear - Botswanský speciál (2007).tvrip.cz.mpeg
    Director: created.with.SUPER(C).v2010.bld.42
    Writing application: SUPER(C)  

    Video
    ID: 0
    Format: MPEG-4 Visual
    Format profile: Simple@L3
    Format settings, BVOP: No
    Format settings, QPel: No
    Format settings, GMC: No warppoints
    Format settings, Matrix: Default (H.263)
    Codec ID: XVID
    Codec ID/Hint: XviD
    Duration: 51mn 27s
    Bit rate: 1 344 Kbps
    Width: 720 pixels
    Height: 400 pixels
    Display aspect ratio: 4:3
    Frame rate: 25.000 fps
    Color space: YUV
    Chroma subsampling: 4:2:0
    Bit depth: 8 bits
    Scan type: Progressive
    Compression mode: Lossy
    Bits/(Pixel*Frame): 0.187
    Stream size: 495 MiB (91%)
    Writing library: SUPER(C).

    Audio
    ID: 1
    Format: MPEG Audio
    Format version: Version 1
    Format profile: Layer 3
    Mode: Joint stereo
    Mode extension: MS Stereo
    Codec ID: 55
    Codec ID/Hint: MP3
    Duration: 51mn 26s
    Bit rate mode: Constant
    Bit rate: 128 Kbps
    Channel(s): 2 channels
    Sampling rate: 44.1 KHz
    Compression mode: Lossy
    Stream size: 47.1 MiB (9%)
    Alignment: Aligned on interleaves
    Interleave, duration: 26 ms (0.65 video frame)
    Interleave, preload duration   : 26 ms

    Indický
    Format: AVI
    Format/Info: Audio Video Interleave
    File size: 704 MiB
    Duration: 1h 27mn
    Overall bit rate: 1 126 Kbps
    Writing application: Lavf53.21.0

    Video
    ID: 0
    Format: MPEG-4 Visual
    Format profile: Advanced Simple@L5
    Format settings, BVOP: 2
    Format settings, QPel: No
    Format settings, GMC: No warppoints
    Format settings, Matrix: Default (H.263)
    Muxing mode: Packed bitstream
    Codec ID: XVID
    Codec ID/Hint: XviD
    Duration: 1h 27mn
    Bit rate: 953 Kbps
    Width: 624 pixels
    Height: 352 pixels
    Display aspect ratio: 16:9
    Frame rate: 25.000 fps
    Color space: YUV
    Chroma subsampling: 4:2:0
    Bit depth: 8 bits
    Scan type: Progressive
    Compression mode: Lossy
    Bits/(Pixel*Frame): 0.174
    Stream size: 596 MiB (85%)
    Writing library: XviD 1.2.1 (UTC 2008-12-04)

    Audio
    ID: 1
    Format: MPEG Audio
    Format version: Version 1
    Format profile: Layer 3
    Mode: Joint stereo
    Mode extension: MS Stereo
    Codec ID: 55
    Codec ID/Hint: MP3
    Duration: 1h 27mn
    Bit rate mode: Constant
    Bit rate: 160 Kbps
    Channel(s): 2 channels
    Sampling rate: 48.0 KHz
    Compression mode: Lossy
    Stream size: 99.9 MiB (14%)
    Alignment: Aligned on interleaves
    Interleave, duration           : 24 ms (0.60 video frame)

    Jižní Amerika
    Format: AVI
    Format/Info: Audio Video Interleave
    File size: 862 MiB
    Duration: 1h 16mn
    Overall bit rate: 1 580 Kbps
    Movie name: topka.mpeg
    Director: created.with.SUPER(C).v2011.bld.44
    Writing application: SUPER(C)  

    Video
    ID: 0
    Format: MPEG-4 Visual
    Format profile: Simple@L3
    Format settings, BVOP: No
    Format settings, QPel: No
    Format settings, GMC: No warppoints
    Format settings, Matrix: Default (H.263)
    Codec ID: XVID
    Codec ID/Hint: XviD
    Duration: 1h 16mn
    Bit rate: 1 439 Kbps
    Width: 720 pixels
    Height: 400 pixels
    Display aspect ratio: 4:3
    Frame rate: 25.000 fps
    Color space: YUV
    Chroma subsampling: 4:2:0
    Bit depth: 8 bits
    Scan type: Progressive
    Compression mode: Lossy
    Bits/(Pixel*Frame): 0.200
    Stream size: 785 MiB (91%)
    Writing library: SUPER(C).

    Audio
    ID: 1
    Format: MPEG Audio
    Format version: Version 1
    Format profile: Layer 3
    Mode: Joint stereo
    Mode extension: MS Stereo
    Codec ID: 55
    Codec ID/Hint: MP3
    Duration: 1h 16mn
    Bit rate mode: Constant
    Bit rate: 128 Kbps
    Channel(s): 2 channels
    Sampling rate: 48.0 KHz
    Compression mode: Lossy
    Stream size: 69.9 MiB (8%)
    Alignment: Aligned on interleaves
    Interleave, duration           : 24 ms (0.60 video frame)

    Olympijský
    Format: AVI
    Format/Info: Audio Video Interleave
    File size: 379 MiB
    Duration: 48mn 46s
    Overall bit rate: 1 085 Kbps

    Video
    ID: 0
    Format: MPEG-4 Visual
    Format profile: Advanced Simple@L5
    Format settings, BVOP: 2
    Format settings, QPel: Yes
    Format settings, GMC: No warppoints
    Format settings, Matrix: Default (MPEG)
    Codec ID: XVID
    Codec ID/Hint: XviD
    Duration: 48mn 46s
    Bit rate: 944 Kbps
    Width: 624 pixels
    Height: 352 pixels
    Display aspect ratio: 16:9
    Frame rate: 25.000 fps
    Color space: YUV
    Chroma subsampling: 4:2:0
    Bit depth: 8 bits
    Scan type: Progressive
    Compression mode: Lossy
    Bits/(Pixel*Frame): 0.172
    Stream size: 330 MiB (87%)
    Writing library: XviD 1.2.0.dev47 (UTC 2006-11-01)

    Audio
    ID: 1
    Format: MPEG Audio
    Format version: Version 1
    Format profile: Layer 3
    Codec ID: 55
    Codec ID/Hint: MP3
    Duration: 48mn 46s
    Source duration: 48mn 46s
    Bit rate mode: Constant
    Bit rate: 128 Kbps
    Channel(s): 2 channels
    Sampling rate: 48.0 KHz
    Compression mode: Lossy
    Stream size: 44.7 MiB (12%)
    Alignment: Split accross interleaves
    Interleave, duration: 24 ms (0.60 video frame)
    Writing library                : LAME3.98

    Patagonský speciál (1.část)
    Format: AVI
    Format/Info: Audio Video Interleave
    Format profile: OpenDML
    File size: 1.16 GiB
    Duration: 1h 2mn
    Overall bit rate: 2 662 Kbps
    Writing application: Lavf54.63.104

    Video
    ID: 0
    Format: AVC
    Format/Info: Advanced Video Codec
    Format profile: Main@L3.1
    Format settings, CABAC: Yes
    Format settings, ReFrames: 1 frame
    Codec ID: H264
    Duration: 1h 2mn
    Bit rate: 2 398 Kbps
    Width: 1 024 pixels
    Height: 576 pixels
    Display aspect ratio: 16:9
    Frame rate mode: Variable
    Frame rate: 25.000 fps
    Color space: YUV
    Chroma subsampling: 4:2:0
    Bit depth: 8 bits
    Scan type: Progressive
    Bits/(Pixel*Frame): 0.163
    Stream size: 1.04 GiB (90%)
    Writing library: x264 core 129
    Encoding settings: cabac=1 / ref=1 / deblock=1:0:0 / analyse=0x1:0x131 / me=dia / subme=2 / psy=1 / psy_rd=1.00:0.00 / mixed_ref=0 / me_range=16 / chroma_me=1 / trellis=0 / 8x8dct=0 / cqm=0 / deadzone=21,11 / fast_pskip=1 / chroma_qp_offset=0 / threads=4 / lookahead_threads=1 / sliced_threads=0 / nr=0 / decimate=1 / interlaced=0 / bluray_compat=0 / constrained_intra=0 / bframes=0 / weightp=2 / keyint=250 / keyint_min=25 / scenecut=40 / intra_refresh=0 / rc_lookahead=40 / rc=abr / mbtree=1 / bitrate=2398 / ratetol=1.0 / qcomp=0.60 / qpmin=10 / qpmax=51 / qpstep=4 / ip_ratio=1.41 / aq=1:1.00

    Audio
    ID: 1
    Format: MPEG Audio
    Format version: Version 1
    Format profile: Layer 3
    Mode: Joint stereo
    Codec ID: 55
    Codec ID/Hint: MP3
    Duration: 1h 2mn
    Bit rate mode: Constant
    Bit rate: 256 Kbps
    Channel(s): 2 channels
    Sampling rate: 48.0 KHz
    Compression mode: Lossy
    Stream size: 114 MiB (10%)
    Alignment: Aligned on interleaves
    Interleave, duration           : 24 ms (0.60 video frame)

    Patagonský speciál (2.část)
    Format: AVI
    Format/Info: Audio Video Interleave
    Format profile: OpenDML
    File size: 1.17 GiB
    Duration: 1h 3mn
    Overall bit rate: 2 662 Kbps
    Writing application: Lavf54.63.104

    Video
    ID: 0
    Format: AVC
    Format/Info: Advanced Video Codec
    Format profile: Main@L3.1
    Format settings, CABAC: Yes
    Format settings, ReFrames: 1 frame
    Codec ID: H264
    Duration: 1h 3mn
    Bit rate: 2 398 Kbps
    Width: 1 024 pixels
    Height: 576 pixels
    Display aspect ratio: 16:9
    Frame rate mode: Variable
    Frame rate: 25.000 fps
    Color space: YUV
    Chroma subsampling: 4:2:0
    Bit depth: 8 bits
    Scan type: Progressive
    Bits/(Pixel*Frame): 0.163
    Stream size: 1.05 GiB (90%)
    Writing library: x264 core 129
    Encoding settings: cabac=1 / ref=1 / deblock=1:0:0 / analyse=0x1:0x131 / me=dia / subme=2 / psy=1 / psy_rd=1.00:0.00 / mixed_ref=0 / me_range=16 / chroma_me=1 / trellis=0 / 8x8dct=0 / cqm=0 / deadzone=21,11 / fast_pskip=1 / chroma_qp_offset=0 / threads=4 / lookahead_threads=1 / sliced_threads=0 / nr=0 / decimate=1 / interlaced=0 / bluray_compat=0 / constrained_intra=0 / bframes=0 / weightp=2 / keyint=250 / keyint_min=25 / scenecut=40 / intra_refresh=0 / rc_lookahead=40 / rc=abr / mbtree=1 / bitrate=2398 / ratetol=1.0 / qcomp=0.60 / qpmin=10 / qpmax=51 / qpstep=4 / ip_ratio=1.41 / aq=1:1.00

    Audio
    ID: 1
    Format: MPEG Audio
    Format version: Version 1
    Format profile: Layer 3
    Mode: Joint stereo
    Codec ID: 55
    Codec ID/Hint: MP3
    Duration: 1h 3mn
    Bit rate mode: Constant
    Bit rate: 256 Kbps
    Channel(s): 2 channels
    Sampling rate: 48.0 KHz
    Compression mode: Lossy
    Stream size: 115 MiB (10%)
    Alignment: Aligned on interleaves
    Interleave, duration           : 24 ms (0.60 video frame)

    Polární
    Format: AVI
    Format/Info: Audio Video Interleave
    File size: 376 MiB
    Duration: 51mn 15s
    Overall bit rate mode: Variable
    Overall bit rate: 1 025 Kbps
    Writing application: MEncoder UNKNOWN-4.2.4
    Writing library: MPlayer

    Video
    ID: 0
    Format: MPEG-4 Visual
    Format profile: Simple@L3
    Format settings, BVOP: No
    Format settings, QPel: No
    Format settings, GMC: No warppoints
    Format settings, Matrix: Default (H.263)
    Codec ID: XVID
    Codec ID/Hint: XviD
    Duration: 51mn 15s
    Bit rate: 880 Kbps
    Width: 640 pixels
    Height: 480 pixels
    Display aspect ratio: 4:3
    Frame rate: 25.000 fps
    Color space: YUV
    Chroma subsampling: 4:2:0
    Bit depth: 8 bits
    Scan type: Progressive
    Compression mode: Lossy
    Bits/(Pixel*Frame): 0.115
    Stream size: 323 MiB (86%)
    Writing library: XviD 1.2.1 (UTC 2008-12-04)

    Audio
    ID: 1
    Format: MPEG Audio
    Format version: Version 1
    Format profile: Layer 3
    Codec ID: 55
    Codec ID/Hint: MP3
    Duration: 51mn 15s
    Bit rate mode: Variable
    Bit rate: 132 Kbps
    Channel(s): 2 channels
    Sampling rate: 48.0 KHz
    Compression mode: Lossy
    Stream size: 48.5 MiB (13%)
    Alignment: Aligned on interleaves
    Interleave, duration           : 24 ms (0.60 video frame)

    Pramen Nilu (1.část)
    Format: AVI
    Format/Info: Audio Video Interleave
    File size: 722 MiB
    Duration: 59mn 6s
    Overall bit rate: 1 708 Kbps
    Writing application: Lavf55.12.100

    Video
    ID: 0
    Format: xvid
    Codec ID: xvid
    Duration: 59mn 5s
    Bit rate: 1 568 Kbps
    Width: 720 pixels
    Height: 400 pixels
    Display aspect ratio: 16:9
    Frame rate: 25.000 fps
    Bits/(Pixel*Frame): 0.218
    Stream size: 663 MiB (92%)

    Audio
    ID: 1
    Format: MPEG Audio
    Format version: Version 1
    Format profile: Layer 3
    Mode: Joint stereo
    Codec ID: 55
    Codec ID/Hint: MP3
    Duration: 59mn 6s
    Bit rate mode: Constant
    Bit rate: 128 Kbps
    Channel(s): 2 channels
    Sampling rate: 44.1 KHz
    Compression mode: Lossy
    Stream size: 54.1 MiB (7%)
    Alignment: Aligned on interleaves
    Interleave, duration           : 26 ms (0.65 video frame)

    Pramen Nilu (2.část)
    Format: AVI
    Format/Info: Audio Video Interleave
    File size: 708 MiB
    Duration: 57mn 53s
    Overall bit rate: 1 709 Kbps
    Writing application: Lavf55.12.100

    Video
    ID: 0
    Format: xvid
    Codec ID: xvid
    Duration: 57mn 53s
    Bit rate: 1 568 Kbps
    Width: 720 pixels
    Height: 400 pixels
    Display aspect ratio: 16:9
    Frame rate: 25.000 fps
    Bits/(Pixel*Frame): 0.218
    Stream size: 649 MiB (92%)

    Audio
    ID: 1
    Format: MPEG Audio
    Format version: Version 1
    Format profile: Layer 3
    Mode: Joint stereo
    Mode extension: MS Stereo
    Codec ID: 55
    Codec ID/Hint: MP3
    Duration: 57mn 53s
    Bit rate mode: Constant
    Bit rate: 128 Kbps
    Channel(s): 2 channels
    Sampling rate: 44.1 KHz
    Compression mode: Lossy
    Stream size: 53.0 MiB (7%)
    Alignment: Aligned on interleaves
    Interleave, duration           : 26 ms (0.65 video frame)

    Speciál ze středního východu
    Format: AVI
    Format/Info: Audio Video Interleave
    File size: 700 MiB
    Duration: 1h 16mn
    Overall bit rate: 1 284 Kbps
    Writing application: VirtualDubMod 1.5.4.1 (build 2178/release)
    Writing library: VirtualDubMod build 2178/release

    Video
    ID: 0
    Format: MPEG-4 Visual
    Format profile: Advanced Simple@L5
    Format settings, BVOP: 1
    Format settings, QPel: No
    Format settings, GMC: No warppoints
    Format settings, Matrix: Custom
    Codec ID: XVID
    Codec ID/Hint: XviD
    Duration: 1h 16mn
    Bit rate: 1 084 Kbps
    Width: 720 pixels
    Height: 400 pixels
    Display aspect ratio: 16:9
    Frame rate: 25.000 fps
    Color space: YUV
    Chroma subsampling: 4:2:0
    Bit depth: 8 bits
    Scan type: Progressive
    Compression mode: Lossy
    Bits/(Pixel*Frame): 0.151
    Stream size: 591 MiB (84%)
    Writing library: XviD 1.2.1 (UTC 2008-12-04)

    Audio
    ID: 1
    Format: MPEG Audio
    Format version: Version 1
    Format profile: Layer 2
    Codec ID: 50
    Duration: 1h 16mn
    Bit rate mode: Constant
    Bit rate: 192 Kbps
    Channel(s): 2 channels
    Sampling rate: 48.0 KHz
    Compression mode: Lossy
    Stream size: 105 MiB (15%)
    Alignment: Aligned on interleaves
    Interleave, duration: 80 ms (2.00 video frames)
    Interleave, preload duration   : 504 ms

    Vietnamský
    Format: AVI
    Format/Info: Audio Video Interleave
    File size: 737 MiB
    Duration: 1h 13mn
    Overall bit rate: 1 400 Kbps
    Movie name: topgearbezreklam.avi
    Director: created.with.SUPER(C).v2010.bld.42
    Writing application: SUPER(C)  

    Video
    ID: 0
    Format: MPEG-4 Visual
    Format profile: Simple@L1
    Format settings, BVOP: No
    Format settings, QPel: No
    Format settings, GMC: No warppoints
    Format settings, Matrix: Default (H.263)
    Codec ID: XVID
    Codec ID/Hint: XviD
    Duration: 1h 13mn
    Bit rate: 1 260 Kbps
    Width: 720 pixels
    Height: 400 pixels
    Display aspect ratio: 16:9
    Frame rate: 25.000 fps
    Color space: YUV
    Chroma subsampling: 4:2:0
    Bit depth: 8 bits
    Scan type: Progressive
    Compression mode: Lossy
    Bits/(Pixel*Frame): 0.175
    Stream size: 663 MiB (90%)
    Writing library: SUPER(C)  

    Audio
    ID: 1
    Format: MPEG Audio
    Format version: Version 1
    Format profile: Layer 3
    Mode: Joint stereo
    Mode extension: MS Stereo
    Codec ID: 55
    Codec ID/Hint: MP3
    Duration: 1h 13mn
    Bit rate mode: Constant
    Bit rate: 128 Kbps
    Channel(s): 2 channels
    Sampling rate: 44.1 KHz
    Compression mode: Lossy
    Stream size: 67.4 MiB (9%)
    Alignment: Aligned on interleaves
    Interleave, duration           : 26 ms (0.65 video frame)

    Seed i po stažení potěší.






    + Pridaj vlastnu verziu tohto torrentu +


    Upozornenie:
    Ziadny zo zobrazených súborov sa nenachádza na tomto serveri. Server slúzi len k síreniu vlastnorucne vytvorených aplikácií, videí, hudby ai. Autori stránok nenesú ziadnu zodpovednost za zverejnené odkazy, komentáre a obsah súborov. Vsetky komentáre, odkazy, súbory ktoré by svojou povahou mohli byt v rozpore zo zákonmi sem vkladáte na vlastnú zodpovednost. Autori stránok si vyhradzujú právo cenzúry odkazov, komentárov príp. súborov, ktoré by svojou povahou mohli byt v rozpore zo zákonmi a dobrými mravmi. Dodrzujte pravidlá!


    No comments...


    Back

    Na serveru se nenalézají zádne soubory. Za odkazy jsou výhradně zodpovědní uzivatelé a návstěvníci tohoto trackeru. Administrátor není zodpovědný za pridaný obsah ani za skody zpusobené uzivateli. Rozsirovat stránku nebo její obsah bez souhlasu ownera je zakázano. Nesmíte pouzívat tuto webovou stránku pro distribuovaní nebo download zádného materiálu pokud nemáte povolení od príslusného vlastníka práv. Uzivatelé jsou zodpovědní za dodrzování těchto pravidel a podmínek. Owner má právo kdykoliv změnit pravidla tohoto trackeru.

    [ Script trval: 0.041 sec. ] - [ GZIP: enabled ]
    BtiTracker (1.4.8) by Btiteam
    Je zhruba 20:40

    TOPlist