Tvoj účet nieje VIP.
Preto sú tvoje funkcie a možnosti značne obmedzené.
Pre aktiváciu VIP klikni sem.

Toy story 1-3 (1995-2010)(CZ) = CSFD 83% | SkTorrent.eu

Cz-SkTorrent open Tracker, na volné zdielanie súborov. Pridajte sa k nasej komunite a získajte pristup k tisícom torrentov.

  • vysoká rýchlost
  • úplne zdarma
  • prevazne Slovenska a Ceska scena
  • ste tu s nami uz 5 rokov - Dakujeme
  • Vitaj Guest (Login) Ako stahovat
    torrenty?
    Torrenty:
    v1 textová
    v2 obrázková
    v3 online filmy
    Ako sa stat
    Uploaderom
    Online
    Filmy
    Forum
    Pravidlá
    BitTorrent
    klient
    Meno: Heslo:
    Zaregistrovat
    Po zaregistrovaní mozte volne stahovat
    Zabudol som heslo

    Torrent's details
    Toy story 1-3 (1995-2010)(CZ) = CSFD 83% Názov:Toy story 1-3 (1995-2010)(CZ) = CSFD 83% Hodnocení: Stiahnut
    Pozriet Online
    Kategória:Filmy Kreslené Velikost:4.1 GB BitTorrent klient
    Pridaný: Súbory:
    Skontrolován:2014-02-22 Peerov:5 (Seed: 5, Leech: 0)
    Zaner:Animovany,Dobrodruzny,Komedie,Rodinny Uploader:Uvidis, az ked budes
    VIP
    Kúp nám Pivo 1,10€

    Kúp nám Pivo
    Podporte nas na Facebooku !
    Pridaj do zalozky
    Pridaj do zalozky





    Toy Story  Příběh hraček 1/2/3

    Toy Story 3: Příběh hraček


    Jazyk: CZ
    Titulky: Ne
    Animovaný / Dobrodružný / Komedie / Rodinný
    USA, 2010, 99 min












    General    
         Format : AVI
         Format/Info : Audio Video Interleave
         File size : 1.40 GiB
         Duration : 1h 42mn
         Overall bit rate : 1 949 Kbps
         Writing application : VirtualDubMod 1.5.10.2 (build 2540/release)
         Writing library : VirtualDubMod build 2540/release
      Video #0
         ID : 0
         Format : MPEG-4 Visual
         Format profile : AdvancedSimple@L5
         Format settings, BVOP : Yes
         Format settings, QPel : No
         Format settings, GMC : No warppoints
         Format settings, Matrix : Default (MPEG)
         Codec ID : XVID
         Codec ID/Hint : XviD
         Duration : 1h 42mn
         Bit rate : 1 556 Kbps
         Width : 720 pixels
         Height : 400 pixels
         Display aspect ratio : 16:9
         Frame rate : 23.976 fps
         Resolution : 24 bits
         Colorimetry : 4:2:0
         Scan type : Progressive
         Bits/(Pixel*Frame) : 0.225
         Stream size : 1.11 GiB (80%)
         Writing library : XviD 1.1.2 (UTC 2006-11-01)
      Audio #1
         ID : 1
         Format : AC-3
         Format/Info : Audio Coding 3
         Codec ID : 2000
         Duration : 1h 42mn
         Bit rate mode : Constant
         Bit rate : 384 Kbps
         Channel(s) : 6 channels
         Channel positions : Front: L C R, Surround: L R, LFE
         Sampling rate : 48.0 KHz
         Stream size : 282 MiB (20%)
         Alignment : Split accross interleaves
         Interleave, duration : 42 ms (1.00 video frame)
         Interleave, preload duration : 500 ms


    http://www.csfd.cz/film/229387-toy-story-3-pribeh-hracek/



    Ve filmu TOY STORY 3: PŘÍBĚH HRAČEK se tvůrci milované série příběhů o hračkách „Toy Story“ vrací do kouzelného světa nám dobře známých hraček. Chlapec Andy už vyrostl a chystá se na vysokou školu. Buzze, Woodyho a zbytek hraček tak čeká nejistá budoucnost. TOY STORY 3: PŘÍBĚH HRAČEK je zbrusu nová dobrodružná komedie, ve které se naši staří známí hrdinové dostanou do školky plné rozjívených dětí a batolat. Obzvláště nezkrotná batolata se už nemohou dočkat, až dostanou tyhle „nové“ hračky do svých malých, upatlaných ručiček. Přestože naše hrdiny čeká nejedna horká chvilka, dobře ví, že nesmí jeden druhého zradit a že se musí pohromadě. A k tomu všemu čeká panenku Barbie první osudové setkání s Kenem.

    Toy Story 2: Příběh hraček


    Jazyk: CZ
    Titulky: Ne
    Animovaný / Rodinný / Komedie / Fantasy
    USA, 1999, 92 min

     










    General
         Format : AVI
         Format/Info : Audio Video Interleave
         File size : 1.37 GiB
         Duration : 1h 28mn
         Overall bit rate : 2 216 Kbps
         Writing application : VirtualDubMod 1.5.10.2 (build 2540/release)
         Writing library : VirtualDubMod build 2540/release
      Video #0
         ID : 0
         Format : MPEG-4 Visual
         Format profile : AdvancedSimple@L5
         Format settings, BVOP : Yes
         Format settings, QPel : No
         Format settings, GMC : No warppoints
         Format settings, Matrix : Default (MPEG)
         Codec ID : XVID
         Codec ID/Hint : XviD
         Duration : 1h 28mn
         Bit rate : 1 818 Kbps
         Width : 640 pixels
         Height : 352 pixels
         Display aspect ratio : 16:9
         Frame rate : 25.000 fps
         Resolution : 24 bits
         Colorimetry : 4:2:0
         Scan type : Progressive
         Bits/(Pixel*Frame) : 0.323
         Stream size : 1.12 GiB (82%)
         Writing library : XviD 1.2.1 (UTC 2008-12-04)
      Audio #1
         ID : 1
         Format : AC-3
         Format/Info : Audio Coding 3
         Format profile : Dolby Digital
         Codec ID : 2000
         Duration : 1h 28mn
         Bit rate mode : Constant
         Bit rate : 192 Kbps
         Channel(s) : 2 channels
         Channel positions : L R
         Sampling rate : 48.0 KHz
         Stream size : 122 MiB (9%)
         Alignment : Split accross interleaves
         Interleave, duration : 40 ms (1.00 video frame)
         Interleave, preload duration : 500 ms
      Audio #2
         ID : 2
         Format : AC-3
         Format/Info : Audio Coding 3
         Format profile : Dolby Digital
         Codec ID : 2000
         Duration : 1h 28mn
         Bit rate mode : Constant
         Bit rate : 192 Kbps
         Channel(s) : 2 channels
         Channel positions : L R
         Sampling rate : 48.0 KHz
         Stream size : 122 MiB (9%)
         Alignment : Split accross interleaves
         Interleave, duration : 40 ms (1.00 video frame)
         Interleave, preload duration : 500 ms


    http://www.csfd.cz/film/18185-toy-story-2-pribeh-hracek/


    Obsah
    Andy odjíždí do kovbojského kampu a zanechává své hračky jejich osudu. Věci se dostanou do obrátek, když posedlý sběratel hraček Al McWhiggin, vlastník Alovy továrny na hračky, unese Woodyho. V Alově bytě Woody zjistí, že je velmi cenným sběratelským kouskem z televizní show z 50. let 20. století s názvem „Woody's Roundup“ a setkává se s dalšími cennými hračkami z této show - Jessie kovbojkou, Bullseye - koněm a Stinky Petem - prospektorem. Zpátky na místě činu Buzz Lightyear a gang z Andyho místnosti – Mr. Potato Head, Slinky Dog, Rex a Hamm – rozjedou akci, aby zachránili svého přítele, který by skončil jako muzejní kousek. Hračky se dostávají do jedné nesnáze za druhou v jejich odvážném závodu, aby dostaly Woodyho zpátky domů, než se Andy vrátí.

    Toy Story 1: Příběh hraček


    Jazyk: CZ
    Titulky: Ne
    Animovaný / Rodinný / Komedie / Fantasy
    USA, 1995, 80 min












    General
         Format : AVI
         Format/Info : Audio Video Interleave
         File size : 1.37 GiB
         Duration : 1h 17mn
         Overall bit rate : 2 536 Kbps
         Writing application : Nandub v1.0rc2
         Writing library : Nandub build 1852/release
      Video #0
         ID : 0
         Format : MPEG-4 Visual
         Format profile : AdvancedSimple@L5
         Format settings, BVOP : Yes
         Format settings, QPel : No
         Format settings, GMC : No warppoints
         Format settings, Matrix : Default (MPEG)
         Codec ID : XVID
         Codec ID/Hint : XviD
         Duration : 1h 17mn
         Bit rate : 2 137 Kbps
         Width : 640 pixels
         Height : 352 pixels
         Display aspect ratio : 16:9
         Frame rate : 25.000 fps
         Resolution : 24 bits
         Colorimetry : 4:2:0
         Scan type : Progressive
         Bits/(Pixel*Frame) : 0.380
         Stream size : 1.15 GiB (84%)
         Writing library : XviD 1.2.1 (UTC 2008-12-04)
      Audio #1
         ID : 1
         Format : AC-3
         Format/Info : Audio Coding 3
         Format profile : Dolby Digital
         Codec ID : 2000
         Duration : 1h 17mn
         Bit rate mode : Constant
         Bit rate : 192 Kbps
         Channel(s) : 2 channels
         Channel positions : L R
         Sampling rate : 48.0 KHz
         Stream size : 106 MiB (8%)
         Alignment : Split accross interleaves
         Interleave, duration : 40 ms (1.00 video frame)
         Interleave, preload duration : 500 ms
      Audio #2
         ID : 2
         Format : AC-3
         Format/Info : Audio Coding 3
         Format profile : Dolby Digital
         Codec ID : 2000
         Duration : 1h 17mn
         Bit rate mode : Constant
         Bit rate : 192 Kbps
         Channel(s) : 2 channels
         Channel positions : L R
         Sampling rate : 48.0 KHz
         Stream size : 106 MiB (8%)
         Alignment : Split accross interleaves
         Interleave, duration : 40 ms (1.00 video frame)
         Interleave, preload duration : 500 ms



    http://www.csfd.cz/film/18184-toy-story-pribeh-hracek/


    Obsah
    Kdo si myslí, že hračky nemají vlastní život, se mýlí. Sotva dítko vyjde ze dveří, začnou se v jeho pokoji dít podivné věci. Všechny hračky si vydechnou, protože mohou být konečně samy sebou, místo aby předstíraly, že jsou pouhými neživými předměty. Nejoblíbenější hračka - kovboj Woody - má pochopitelně hlavní slovo a všichni ostatní dnes pod jeho vedením připravují speciální průzkumnou akci. Chlapec má totiž narozeniny a Woodyho přátelé se obávají, jaké nové (a lepší) hračky budou muset přivítat ve svém středu. Jejich nejhorší tušení se tentokrát vyplňují a Woodyho konkurentem se stává narozeninový dárek - mluvící superkosmonaut Buzz Rakeťák. Už na první pohled si Woody s Buzzem nepadli do oka, ale když rakeťák nešťastnou náhodou vypadne z okna na dvorek sousedního domu, ve kterém bydlí chlapec, jehož nejoblíbenější zábavou je mučení hraček, musí se Woody vydat na záchrannou výpravu. Čeká ho s Buzzem největší dobrodružství jejich "života"...







    + Pridaj vlastnu verziu tohto torrentu +


    Upozornenie:
    Ziadny zo zobrazených súborov sa nenachádza na tomto serveri. Server slúzi len k síreniu vlastnorucne vytvorených aplikácií, videí, hudby ai. Autori stránok nenesú ziadnu zodpovednost za zverejnené odkazy, komentáre a obsah súborov. Vsetky komentáre, odkazy, súbory ktoré by svojou povahou mohli byt v rozpore zo zákonmi sem vkladáte na vlastnú zodpovednost. Autori stránok si vyhradzujú právo cenzúry odkazov, komentárov príp. súborov, ktoré by svojou povahou mohli byt v rozpore zo zákonmi a dobrými mravmi. Dodrzujte pravidlá!





    2
    Bubicek
    Ratio 0.7

    Clen

    16/09/2018 11.21.25
    prosiiim seed...dakujem


    Back

    Na serveru se nenalézají zádne soubory. Za odkazy jsou výhradně zodpovědní uzivatelé a návstěvníci tohoto trackeru. Administrátor není zodpovědný za pridaný obsah ani za skody zpusobené uzivateli. Rozsirovat stránku nebo její obsah bez souhlasu ownera je zakázano. Nesmíte pouzívat tuto webovou stránku pro distribuovaní nebo download zádného materiálu pokud nemáte povolení od príslusného vlastníka práv. Uzivatelé jsou zodpovědní za dodrzování těchto pravidel a podmínek. Owner má právo kdykoliv změnit pravidla tohoto trackeru.

    [ Script trval: 0.032 sec. ] - [ GZIP: enabled ]
    BtiTracker (1.4.8) by Btiteam
    Je zhruba 11:29

    TOPlist