Tvoj účet nieje VIP.
Preto sú tvoje funkcie a možnosti značne obmedzené.
Pre aktiváciu VIP klikni sem.

Transformers: Zanik Transformers: Age of Extiction (2014)(CZ/EN)(2160p 4K HDR10) = CSFD 55% | SkTorrent.eu

Cz-SkTorrent open Tracker, na volné zdielanie súborov. Pridajte sa k nasej komunite a získajte pristup k tisícom torrentov.

  • vysoká rýchlost
  • úplne zdarma
  • prevazne Slovenska a Ceska scena
  • ste tu s nami uz 5 rokov - Dakujeme
  • Vitaj Guest (Login) Ako stahovat
    torrenty?
    Torrenty:
    v1 textová
    v2 obrázková
    v3 online filmy
    Ako sa stat
    Uploaderom
    Online
    Filmy
    Forum
    Pravidlá
    BitTorrent
    klient
    Meno: Heslo:
    Zaregistrovat
    Po zaregistrovaní mozte volne stahovat
    Zabudol som heslo

    Torrent's details
    Transformers: Zanik Transformers: Age of Extiction  (2014)(CZ/EN)(2160p 4K HDR10) = CSFD 55% Názov:Transformers: Zanik Transformers: Age of Extiction (2014)(CZ/EN)(2160p 4K HDR10) = CSFD 55% Hodnocení: Stiahnut
    Pozriet Online
    Kategória:UHD Filmy Velikost:37.9 GB BitTorrent klient
    Pridaný: Súbory:
    Skontrolován:2021-06-09 Peerov:3 (Seed: 3, Leech: 0)
    Zaner:Akcni,Dobrodruzny,Sci-Fi Uploader:Uvidis, az ked budes
    VIP
    Kúp nám Pivo 1,10€

    Kúp nám Pivo
    Podporte nas na Facebooku !
    Pridaj do zalozky
    Pridaj do zalozky






    Transformers: Zanik
    Transformers: Age of Extinction
    (2014)(CZ/EN) = CSFD 55%

    2160p 4K HDR10 - HEVC – 32.8 Mb/s Bitrate verzia










    Video: 2160p 4K HDR10 - HEVC
    Jazyk: CZ 5.1 DD / EN 7.1 Dolby Atmos / EN 5.1 DD
    Titulky: CZ  / EN
    Akcni / Dobrodruzny / Sci-Fi
    USA 2014
    165 min

    Režie: Michael Bay
    Scénář: Ehren Kruger
    Kamera: Amir Mokri
    Hudba: Steve Jablonsky
    Hrají: Mark Wahlberg, Jack Reynor, Nicola Peltz, Stanley Tucci, Kelsey Grammer, Sophia Myles, Bingbing Li, T.J. Miller, Peter Cullen, Titus Welliver, Victoria Summer, Heather Danner, Cleo King, Michael Wong, Ray Lui, Ken Watanabe, Thomas Lennon, John Goodman, John DiMaggio, Frank Welker, Richard Riehle, Reno Wilson, Mark Ryan, Robert Foxworth, Byron Li, Teresa Daley, Candice Zhao, Abigail Klein, Glenn Keogh, Geng Han, Walbert Beltran, Jenny Zhang, Calvin Wimmer, Eric Bauza, Alexander Leeb, Patrick Bristow, Lily Ji, Jamison Haase, Jessica Gomes, Ludi Lin, Lisa Belcher, Layla Cushman, Kenny Sheard, Jerome Yoo, Jonathan Emond, Nina Wu

    OBSAH

    Automechanik Cade Yager (Walhberg) se snaží uživit sebe a svou dospívající dceru Tessu (Nicola Peltz) opravováním hodně nepojízdných vraků. Zoufale se mu nedaří, ale jen do doby, než se z jednoho roztřískaného náklaďáku vyklube Transformer a zrovna ten nejdůležitější – Optimus Prime. Cade z toho jen těžko může mít radost, protože Amerika se ještě úplně nevzpamatovala ze souboje „hodných" Autobotů se „zlými" Deceptikony, který na konci třetího dílu zlikvidoval půlku Chicaga. Čtyři roky poté jsou všichni zástupci téhle mimozemské rasy na indexu a elitní vědecké mozky se snaží vytvořit pozemské Transformery, kteří by účinněji čelili podobným hrozbám. Z minulosti ale víme, že cesta do pekel bývá dlážděná dobrými úmysly, a jinak tomu nebude ani v tomto případě...

    SCREEN



    TRAILER






    Hlavní
    Formát : Matroska
    Format version : Version 4
    Velikost souboru : 37,9 GiB
    Duration : 2 h 45 min
    Overall bit rate mode : Variable
    Celkový BitRate : 32,8 Mb/s
    Encoded date : UTC 2021-06-07 23:24:48
    Použitý software : mkvmerge v31.0.0 ('Dolores In A Shoestand') 64-bit
    Enkódoval : libebml v1.3.6 + libmatroska v1.4.9

    Video
    ID : 1
    Formát : HEVC
    Formát/Info : High Efficiency Video Coding
    Format profile : Main 10@L5.1@High
    HDR format : SMPTE ST 2086, HDR10 compatible
    Codec ID : V_MPEGH/ISO/HEVC
    Duration : 2 h 45 min
    Bit rate : 25,8 Mb/s
    Šířka : 3 840pixely
    Výška : 1 600pixely
    Poměr stran : 2,40:1
    Frame rate mode : Constant
    Frame rate : 23,976 (24000/1001) FPS
    Color space : YUV
    Chroma subsampling : 4:2:0 (Type 2)
    Bit depth : 10 bits
    Bits/(Pixel*Frame) : 0.175
    Stream size : 29,8 GiB (79%)
    Enkódoval : x265 2.6+4-f7498acb3874:[Windows][GCC 7.2.0][64 bit] 10bit
    Default : Ano
    Forced : Ne
    Color range : Limited
    Color primaries : BT.2020
    Transfer characteristics : PQ
    Matrix coefficients : BT.2020 non-constant
    Mastering display color primaries : Display P3
    Mastering display luminance : min: 0.0001 cd/m2, max: 1000 cd/m2

    Audio #1
    ID : 2
    Formát : MLP FBA 16-ch
    Formát/Info : Meridian Lossless Packing FBA with 16-channel presentation
    Commercial name : Dolby TrueHD with Dolby Atmos
    Codec ID : A_TRUEHD
    Duration : 2 h 45 min
    Bit rate mode : Variable
    Bit rate : 5 025 kb/s
    Maximum bit rate : 8 262 kb/s
    Kanál(y) : 8 kanály
    Channel layout : L R C LFE Ls Rs Lb Rb
    Sampling rate : 48,0 kHz
    Frame rate : 1 200,000 FPS (40 SPF)
    Compression mode : Lossless
    Stream size : 5,80 GiB (15%)
    Jazyk : English
    Default : Ne
    Forced : Ne
    Number of dynamic objects : 11
    Bed channel count : 1 kanál
    Bed channel configuration : LFE

    Audio #2
    ID : 3
    Formát : AC-3
    Formát/Info : Audio Coding 3
    Commercial name : Dolby Digital
    Format settings : Dolby Surround EX
    Codec ID : A_AC3
    Duration : 2 h 45 min
    Bit rate mode : Constant
    Bit rate : 640 kb/s
    Kanál(y) : 6 kanály
    Channel layout : L R C LFE Ls Rs
    Sampling rate : 48,0 kHz
    Frame rate : 31,250 FPS (1536 SPF)
    Compression mode : Lossy
    Stream size : 756 MiB (2%)
    Jazyk : English
    Service kind : Complete Main
    Default : Ne
    Forced : Ne

    Audio #3
    ID : 9
    Formát : AC-3
    Formát/Info : Audio Coding 3
    Commercial name : Dolby Digital
    Codec ID : A_AC3
    Duration : 2 h 45 min
    Bit rate mode : Constant
    Bit rate : 640 kb/s
    Kanál(y) : 6 kanály
    Channel layout : L R C LFE Ls Rs
    Sampling rate : 48,0 kHz
    Frame rate : 31,250 FPS (1536 SPF)
    Compression mode : Lossy
    Stream size : 756 MiB (2%)
    Jazyk : Czech
    Service kind : Complete Main
    Default : Ano
    Forced : Ano

    Audio #4
    ID : 10
    Formát : AC-3
    Formát/Info : Audio Coding 3
    Commercial name : Dolby Digital
    Codec ID : A_AC3
    Duration : 2 h 45 min
    Bit rate mode : Constant
    Bit rate : 640 kb/s
    Kanál(y) : 6 kanály
    Channel layout : L R C LFE Ls Rs
    Sampling rate : 48,0 kHz
    Frame rate : 31,250 FPS (1536 SPF)
    Compression mode : Lossy
    Stream size : 756 MiB (2%)
    Jazyk : English
    Service kind : Complete Main
    Default : Ne
    Forced : Ne

    Text #1
    ID : 4
    Formát : UTF-8
    Codec ID : S_TEXT/UTF8
    Codec ID/Info : UTF-8 Plain Text
    Duration : 1 h 17 min
    Bit rate : 0 b/s
    Count of elements : 9
    Stream size : 365 Bytes (0%)
    Jazyk : English
    Default : Ano
    Forced : Ano

    Text #2
    ID : 5
    Formát : UTF-8
    Codec ID : S_TEXT/UTF8
    Codec ID/Info : UTF-8 Plain Text
    Duration : 2 h 34 min
    Bit rate : 62 b/s
    Count of elements : 2206
    Stream size : 70,8 KiB (0%)
    Jazyk : English
    Default : Ne
    Forced : Ne

    Text #3
    ID : 6
    Formát : UTF-8
    Codec ID : S_TEXT/UTF8
    Codec ID/Info : UTF-8 Plain Text
    Duration : 2 h 34 min
    Bit rate : 61 b/s
    Count of elements : 2153
    Stream size : 69,9 KiB (0%)
    Jazyk : English
    Default : Ne
    Forced : Ne

    Text #4
    ID : 7
    Formát : UTF-8
    Codec ID : S_TEXT/UTF8
    Codec ID/Info : UTF-8 Plain Text
    Duration : 2 h 35 min
    Bit rate : 68 b/s
    Count of elements : 2509
    Stream size : 78,7 KiB (0%)
    Jazyk : English
    Default : Ne
    Forced : Ne

    Text #5
    ID : 8
    Formát : PGS
    Muxing mode : zlib
    Codec ID : S_HDMV/PGS
    Codec ID/Info : Picture based subtitle format used on BDs/HD-DVDs
    Duration : 2 h 43 min
    Bit rate : 34,7 kb/s
    Count of elements : 4360
    Stream size : 40,7 MiB (0%)
    Jazyk : German
    Default : Ne
    Forced : Ne

    Text #6
    ID : 11
    Formát : UTF-8
    Codec ID : S_TEXT/UTF8
    Codec ID/Info : UTF-8 Plain Text
    Duration : 2 h 34 min
    Bit rate : 49 b/s
    Count of elements : 1325
    Stream size : 56,2 KiB (0%)
    Jazyk : Czech
    Default : Ne
    Forced : Ne

    Text #7
    ID : 12
    Formát : UTF-8
    Codec ID : S_TEXT/UTF8
    Codec ID/Info : UTF-8 Plain Text
    Duration : 2 h 34 min
    Bit rate : 69 b/s
    Count of elements : 2502
    Stream size : 78,3 KiB (0%)
    Jazyk : English
    Default : Ne
    Forced : Ne

    Menu
    00:00:00.000 : en:00:00:00.000
    00:06:51.578 : en:00:06:51.578
    00:14:33.581 : en:00:14:33.581
    00:21:37.463 : en:00:21:37.463
    00:30:13.395 : en:00:30:13.395
    00:38:45.990 : en:00:38:45.990
    00:46:08.057 : en:00:46:08.057
    00:51:39.513 : en:00:51:39.513
    00:59:09.337 : en:00:59:09.337
    01:07:48.648 : en:01:07:48.648
    01:15:14.552 : en:01:15:14.552
    01:23:25.292 : en:01:23:25.292
    01:29:14.724 : en:01:29:14.724
    01:37:16.956 : en:01:37:16.956
    01:44:35.436 : en:01:44:35.436
    01:51:25.053 : en:01:51:25.053
    01:57:47.936 : en:01:57:47.936
    02:04:48.481 : en:02:04:48.481
    02:12:35.865 : en:02:12:35.865
    02:21:04.206 : en:02:21:04.206
    02:28:48.670 : en:02:28:48.670
    02:37:09.629 : en:02:37:09.629







    VDAKA ZA BODY a SEEDUJTE












    + Pridaj vlastnu verziu tohto torrentu +


    Upozornenie:
    Ziadny zo zobrazených súborov sa nenachádza na tomto serveri. Server slúzi len k síreniu vlastnorucne vytvorených aplikácií, videí, hudby ai. Autori stránok nenesú ziadnu zodpovednost za zverejnené odkazy, komentáre a obsah súborov. Vsetky komentáre, odkazy, súbory ktoré by svojou povahou mohli byt v rozpore zo zákonmi sem vkladáte na vlastnú zodpovednost. Autori stránok si vyhradzujú právo cenzúry odkazov, komentárov príp. súborov, ktoré by svojou povahou mohli byt v rozpore zo zákonmi a dobrými mravmi. Dodrzujte pravidlá!


    No comments...


    Back

    Na serveru se nenalézají zádne soubory. Za odkazy jsou výhradně zodpovědní uzivatelé a návstěvníci tohoto trackeru. Administrátor není zodpovědný za pridaný obsah ani za skody zpusobené uzivateli. Rozsirovat stránku nebo její obsah bez souhlasu ownera je zakázano. Nesmíte pouzívat tuto webovou stránku pro distribuovaní nebo download zádného materiálu pokud nemáte povolení od príslusného vlastníka práv. Uzivatelé jsou zodpovědní za dodrzování těchto pravidel a podmínek. Owner má právo kdykoliv změnit pravidla tohoto trackeru.

    [ Script trval: 0.024 sec. ] - [ GZIP: enabled ]
    BtiTracker (1.4.8) by Btiteam
    Je zhruba 23:55

    TOPlist