Tvoj účet nieje VIP.
Preto sú tvoje funkcie a možnosti značne obmedzené.
Pre aktiváciu VIP klikni sem.

Trestny prapor / Strafbat - Komplet (2004)(CZ) = CSFD 75% | SkTorrent.eu

Cz-SkTorrent open Tracker, na volné zdielanie súborov. Pridajte sa k nasej komunite a získajte pristup k tisícom torrentov.

  • vysoká rýchlost
  • úplne zdarma
  • prevazne Slovenska a Ceska scena
  • ste tu s nami uz 5 rokov - Dakujeme
  • Vitaj Guest (Login) Ako stahovat
    torrenty?
    Torrenty:
    v1 textová
    v2 obrázková
    v3 online filmy
    Ako sa stat
    Uploaderom
    Online
    Filmy
    Forum
    Pravidlá
    BitTorrent
    klient
    Meno: Heslo:
    Zaregistrovat
    Po zaregistrovaní mozte volne stahovat
    Zabudol som heslo

    Torrent's details
    Trestny prapor / Strafbat - Komplet (2004)(CZ) = CSFD 75% Názov:Trestny prapor / Strafbat - Komplet (2004)(CZ) = CSFD 75% Hodnocení: Stiahnut
    Pozriet Online
    Kategória:Seriál Velikost:3.8 GB BitTorrent klient
    Pridaný: Súbory:
    Skontrolován:2020-09-15 Peerov:64 (Seed: 62, Leech: 2)
    Zaner:Akcni,Drama,Valecny Uploader:Uvidis, az ked budes
    VIP
    Kúp nám Pivo 1,10€

    Kúp nám Pivo
    Podporte nas na Facebooku !
    Pridaj do zalozky
    Pridaj do zalozky








    "Trestný prapor"
    "Štrafbat"


    Jazyk | Cz 2.0
    Titulky | Ne
    Datum vydání | Rusko, 2004
    Délka | 11x50 min
    Žánr | Akční / Drama / Válečný











    Režie | Nikolaj Dostal
    Kamera | Alexej Rodionov
    Hudba | Alexej Šelygin
    Hrají | Alexej Serebrjakov, Andrej Merzlikin, Dmitrij Nazarov, Alexandr Baširov, Naděžda Markina, Michail Děmentěv, Polina Kutěpova, Darja Moroz, Andrej Smoljakov, Jevgenij Běrezovskij, Roman Artěmjev, Sergej Cepov, Natalja Naumova, Timofej Tribuncev, Jevgenij Pronin, Ivan Lapin, Roman Maďanov, Sergej Fetisov, Leonid Gromov, Denis Kuročka, Vladimir Kašpur, Maxim Drozd, Jurij Stěpanov, Anatolij Filippov, Alexej Ošurkov, Kirill Petrov, Viktor Suprun, Olga Filippova, Vladimir Kapustin, Tagir Rachimov, Viktor Solovjov, Alexandr Makarov, Nikita Jemšanov, Alexandr Curkan, Michail Krylov, Vladislav Kotljarskij, Igor Filippov, Alexandr Kuljamin, Alexej Longin, Natalja Lesnikovskaja, Vladimir Skvorcov, Anatolij Gorjačev, Kirill Pletňov, Alexandr Ovčinnikov, Eduard Volodarskij, Maxim Konovalov, Sergej Rudzevič, Ilja Rogovin, Oleg Mazurov, Jekatěrina Direktorenko, Alexandr Kulkov, Anna Artamonova, Vjačeslav Ganěnko, Andrej Šibaršin, Jevgenij Sologalov, Mikael Šachnazarov, Nikolaj Mačulskij, Prochor Zikora, Alexandr Mjakuško, Vladimir Usťugov, Jurij Pavlov, Lev Borisov, Vladimir Javorskij, Anna Astaškina, Alexandr Čerňavskij, Roman Kirillov, Oleg Kovalenko, Ilja Semjonov, Sergej Kalašnikov, Andrej Něvrajev, Maxim Litovčenko, Michail Solodko, Michail Kaliničev, Dmitrij Medveděv, Olga Kalašnikova, Alexandr Nikiforov, Jurij Ponomarenko, Valerij Anisimov, Alexej Žarkov, Alexandr Nikulin, Kirill Burdichin, Taťjana Žuravljova, Gennadij Podšivalov, Vladimir Rovinskij, Jurij Oborotov, Jekatěrina Morozova, Maxim Zykov, Pavel Misailov, Igor Lebeděv, Alexandr Anšjutc, Alexandr Siňukov, Ivan Mochovikov, Vadim Burlakov, Alexandr Solovjov, Andrej Valc, Vitalij Zikora, Irina Kareva, Gregori-Said Bagov, Julija Janovskaja, Ruslan Chabijev, Dmitrij Popov, Ilja Ždanikov, Michail Samochvalov, Ivan Timčenko, Georgij Šachet, Olga Suchorukova, Šota Gamisonija
    Producenti | Vladimir Dostal



    Historické události druhé světové války byly vypovězeny v mnoha dokumentárních i hraných filmech. Jedna z temných kapitol ruského boje za osvobození, však nebyla nikdy zaznamenána. Zoufalé boje tisícovek trestných praporů, složených z mužů, trestanců, kterým sovětský režim dal jasně na výběr – buď zemřou rukou kata, nebo budou do posledního dechu bojovat proti fašistickému nepříteli. Trestné prapory, muži, kteří neměli co ztratit. Vojenské útvary v nichž bojovali kriminálníci, stejně jako muži, kteří šlápli vedle, kněží, hrdinové, nebo dezertéři. Jednotky, které byly postradatelné a byli proto nasazovány do nejtěžších bitev. Bratrstva lidí, jejichž jediným smyslem bylo dožít se příštího dne. A toto je epický příběh jednoho z nich!

    Jedenáctidílná série, natočená v roce 2004 Nikolajem Dostalem, je založená na reálném základu vzpomínek těch, kteří přežili. Je natočena velkorysým stylem, který jí přibližuje k vysoce hodnocenému seriálu Bratrstvo neohrožených. Charaktery jednotlivých postav jsou vykresleny bez patosu a falešného hrdinství, kamera nápaditě zachycuje jejich bouřlivý život v němž smrt byla častým hostem. Vysoký důraz na reálnost prostředí, postav a dialogů tvoří nejen živou, ale i zajímavou mozaiku osudů, těch kteří dostali poslední životní šanci – bojovat za vlast do posledního dechu.


























    Format                         : Matroska
    Format version                 : Version 4
    File size                      : 339 MiB
    Duration                       : 49 min 52 s
    Overall bit rate               : 949 kb/s
    Movie name                     : Trestny.prapor.E01.480p.8bit.DVDRip.AAC.x264.CZ-KDC
    Encoded date                   : UTC 2020-09-13 07:57:31
    Writing application            : mkvmerge v23.0.0 ('The Bride Said No') 64-bit
    Writing library                : libebml v1.3.6 + libmatroska v1.4.9

    Video
    ID                             : 1
    Format                         : AVC
    Format/Info                    : Advanced Video Codec
    Format profile                 : Main@L4
    Format settings                : CABAC / 4 Ref Frames
    Format settings, CABAC         : Yes
    Format settings, Reference fra : 4 frames
    Codec ID                       : V_MPEG4/ISO/AVC
    Duration                       : 49 min 52 s
    Bit rate                       : 786 kb/s
    Width                          : 704 pixels
    Height                         : 476 pixels
    Display aspect ratio           : 16:10
    Original display aspect ratio  : 16:10
    Frame rate mode                : Constant
    Frame rate                     : 25.000 FPS
    Color space                    : YUV
    Chroma subsampling             : 4:2:0
    Bit depth                      : 8 bits
    Scan type                      : Progressive
    Bits/(Pixel*Frame)             : 0.094
    Stream size                    : 280 MiB (83%)
    Title                          : Trestny.prapor.E01.480p.8bit.DVDRip.AAC.x264.CZ-KDC
    Writing library                : x264 core 148 r2708 86b7198
    Encoding settings              : cabac=1 / ref=2 / deblock=1:0:0 / analyse=0x1:0x111 / me=hex / subme=6 / psy=1 / psy_rd=1.00:0.00 / mixed_ref=1 / me_range=16 / chroma_me=1 / trellis=1 / 8x8dct=0 / cqm=0 / deadzone=21,11 / fast_pskip=1 / chroma_qp_offset=-2 / threads=6 / lookahead_threads=1 / sliced_threads=0 / nr=0 / decimate=1 / interlaced=0 / bluray_compat=0 / constrained_intra=0 / bframes=3 / b_pyramid=2 / b_adapt=1 / b_bias=0 / direct=1 / weightb=1 / open_gop=0 / weightp=1 / keyint=250 / keyint_min=25 / scenecut=40 / intra_refresh=0 / rc_lookahead=30 / rc=crf / mbtree=1 / crf=22.0 / qcomp=0.60 / qpmin=0 / qpmax=69 / qpstep=4 / vbv_maxrate=20000 / vbv_bufsize=25000 / crf_max=0.0 / nal_hrd=none / filler=0 / ip_ratio=1.40 / aq=1:1.00
    Language                       : Czech
    Default                        : Yes
    Forced                         : No
    Color range                    : Limited
    Color primaries                : BT.601 NTSC
    Transfer characteristics       : BT.709
    Matrix coefficients            : BT.601

    Audio
    ID                             : 2
    Format                         : AAC LC
    Format/Info                    : Advanced Audio Codec Low Complexity
    Codec ID                       : A_AAC-2
    Duration                       : 49 min 52 s
    Bit rate                       : 160 kb/s
    Channel(s)                     : 2 channels
    Channel layout                 : L R
    Sampling rate                  : 48.0 kHz
    Frame rate                     : 46.875 FPS (1024 SPF)
    Compression mode               : Lossy
    Delay relative to video        : -21 ms
    Stream size                    : 57.3 MiB (17%)
    Title                          : Cz 2.0
    Language                       : Czech
    Default                        : Yes
    Forced                         : No













    chanek, sa58, Simlik1, psovod, MRAKOMOR54, jarek7, jokas36, microjelen, BobbyBukacek, miro397, uzbrblesle, m4T0m, Kouba007, šlosy, ŠtefanMráz, mark31219, foxxxik26, mirek1730, HYUNDAIK, mirek07, novakrad1, Rojak, macho, Ferdakraken,

    + Pridaj vlastnu verziu tohto torrentu +


    Upozornenie:
    Ziadny zo zobrazených súborov sa nenachádza na tomto serveri. Server slúzi len k síreniu vlastnorucne vytvorených aplikácií, videí, hudby ai. Autori stránok nenesú ziadnu zodpovednost za zverejnené odkazy, komentáre a obsah súborov. Vsetky komentáre, odkazy, súbory ktoré by svojou povahou mohli byt v rozpore zo zákonmi sem vkladáte na vlastnú zodpovednost. Autori stránok si vyhradzujú právo cenzúry odkazov, komentárov príp. súborov, ktoré by svojou povahou mohli byt v rozpore zo zákonmi a dobrými mravmi. Dodrzujte pravidlá!





    3
    okanisko
    Ratio 1.67

    Member+

    15/09/2020 19.37.07
    Jeden z najlepsich serialov.Vdaka


    Back

    Na serveru se nenalézají zádne soubory. Za odkazy jsou výhradně zodpovědní uzivatelé a návstěvníci tohoto trackeru. Administrátor není zodpovědný za pridaný obsah ani za skody zpusobené uzivateli. Rozsirovat stránku nebo její obsah bez souhlasu ownera je zakázano. Nesmíte pouzívat tuto webovou stránku pro distribuovaní nebo download zádného materiálu pokud nemáte povolení od príslusného vlastníka práv. Uzivatelé jsou zodpovědní za dodrzování těchto pravidel a podmínek. Owner má právo kdykoliv změnit pravidla tohoto trackeru.

    [ Script trval: 0.027 sec. ] - [ GZIP: enabled ]
    BtiTracker (1.4.8) by Btiteam
    Je zhruba 21:44

    TOPlist