Tvoj účet nieje VIP.
Preto sú tvoje funkcie a možnosti značne obmedzené.
Pre aktiváciu VIP klikni sem.

Trol (2022)(WebDl)(FHD)(1080p)(x264)(Multi 6 lang)(MultiSUB) = CSFD 53% | SkTorrent.eu

Cz-SkTorrent open Tracker, na volné zdieľanie súborov. Pridajte sa k našej komunite a získajte prístup k tisícom torrentov.

  • vysoká rýchlosť
  • úplne zdarma
  • prevažne Slovenská a Česká scéna
  • ste tu s nami už 10 rokov - Ďakujeme
  • Vitaj Guest (Login) Ako stahovat
    torrenty?
    Torrenty:
    v1 textová
    v2 obrázková
    Ako sa stat
    Uploaderom
    Online
    Filmy
    Forum
    Pravidlá
    SkTSocial
    BitTorrent
    klient
    Meno: Heslo:
    Zaregistrovat
    Po zaregistrovaní mozte volne stahovat
    Zabudol som heslo

    Trol (2022)(WebDl)(FHD)(1080p)(x264)(Multi 6 lang)(MultiSUB) = CSFD 53% Názov:Trol (2022)(WebDl)(FHD)(1080p)(x264)(Multi 6 lang)(MultiSUB) = CSFD 53% Hodnocení: Stiahnut
    Pozriet Online
    Kategória:Filmy CZ/SK dabing - Velikost:4.3 GB BitTorrent klient
    Pridaný: Súbory:
    Skontrolován:2023-01-31 Peerov:0 (Seed: 0, Leech: 0)
    Zaner:Akcni,Dobrodruzny,Fantasy Uploader:Uvidis, az ked budes
    VIP
    Kúp nám Pivo 1,10€

    Kúp nám Pivo

    Pridaj do zalozky
    Pridaj do zalozky




    [center]







    Movie Name: Trol (2022)
    IMDb Rating: 7.0/10

    Quality: 1080p (WebDL)
    Language: E-AC-3 5.1 640kb/s - English , Czech , Germany , Polish , Hungarian
    Subtitles: Multi
    Director: Roar Uthaug
    Writers: Espen Aukan
    Genres: Action | Adventure | Drama |


    Deep in the Dovre mountain, something gigantic wakes up after a thousand years in captivity. The creature destroys everything in its path and quickly approaches Oslo.




    [/center]
    Format                                   : Matroska
    Format version                           : Version 4
    File size                                : 4.33 GiB
    Duration                                 : 1 h 43 min
    Overall bit rate mode                    : Variable
    Overall bit rate                         : 5 972 kb/s
    Movie name                               : Trol
    Encoded date                             : UTC 2022-12-04 07:19:16
    Writing application                      : mkvmerge v68.0.0 ('The Curtain') 64-bit
    Writing library                          : libebml v1.4.2 + libmatroska v1.6.4

    Video
    ID                                       : 1
    Format                                   : AVC
    Format/Info                              : Advanced Video Codec
    Format profile                           : High@L4
    Format settings                          : CABAC / 4 Ref Frames
    Format settings, CABAC                   : Yes
    Format settings, Reference frames        : 4 frames
    Codec ID                                 : V_MPEG4/ISO/AVC
    Duration                                 : 1 h 43 min
    Bit rate mode                            : Variable
    Bit rate                                 : 1 745 kb/s
    Maximum bit rate                         : 20.0 Mb/s
    Width                                    : 1 920 pixels
    Height                                   : 1 080 pixels
    Display aspect ratio                     : 16:9
    Frame rate mode                          : Constant
    Frame rate                               : 24.000 FPS
    Color space                              : YUV
    Chroma subsampling                       : 4:2:0
    Bit depth                                : 8 bits
    Scan type                                : Progressive
    Bits/(Pixel*Frame)                       : 0.035
    Stream size                              : 1.26 GiB (29%)
    Writing library                          : x264 core 148 r2727 7d026e8
    Encoding settings                        : cabac=1 / ref=4 / deblock=1:0:0 / analyse=0x3:0x111 / me=umh / subme=10 / psy=1 / psy_rd=1.00:0.00 / mixed_ref=1 / me_range=120 / chroma_me=1 / trellis=2 / 8x8dct=1 / cqm=0 / deadzone=21,11 / fast_pskip=1 / chroma_qp_offset=-2 / threads=8 / lookahead_threads=2 / sliced_threads=0 / nr=0 / decimate=1 / interlaced=0 / bluray_compat=0 / stitchable=1 / constrained_intra=0 / bframes=16 / b_pyramid=2 / b_adapt=2 / b_bias=0 / direct=3 / weightb=1 / open_gop=0 / weightp=2 / keyint=240 / keyint_min=121 / scenecut=0 / intra_refresh=0 / rc_lookahead=240 / rc=crf / mbtree=1 / crf=23.0 / qcomp=0.50 / qpmin=6 / qpmax=51 / qpstep=4 / vbv_maxrate=20000 / vbv_bufsize=25000 / crf_max=0.0 / nal_hrd=vbr / filler=0 / ip_ratio=1.40 / aq=1:0.80
    Default                                  : Yes
    Forced                                   : No

    Audio #1
    ID                                       : 2
    Format                                   : E-AC-3
    Format/Info                              : Enhanced AC-3
    Commercial name                          : Dolby Digital Plus
    Codec ID                                 : A_EAC3
    Duration                                 : 1 h 43 min
    Bit rate mode                            : Constant
    Bit rate                                 : 640 kb/s
    Channel(s)                               : 6 channels
    Channel layout                           : L R C LFE Ls Rs
    Sampling rate                            : 48.0 kHz
    Frame rate                               : 31.250 FPS (1536 SPF)
    Compression mode                         : Lossy
    Stream size                              : 475 MiB (11%)
    Language                                 : Czech
    Service kind                             : Complete Main
    Default                                  : Yes
    Forced                                   : No

    Audio #2
    ID                                       : 3
    Format                                   : E-AC-3 JOC
    Format/Info                              : Enhanced AC-3 with Joint Object Coding
    Commercial name                          : Dolby Digital Plus with Dolby Atmos
    Codec ID                                 : A_EAC3
    Duration                                 : 1 h 43 min
    Bit rate mode                            : Constant
    Bit rate                                 : 768 kb/s
    Channel(s)                               : 6 channels
    Channel layout                           : L R C LFE Ls Rs
    Sampling rate                            : 48.0 kHz
    Frame rate                               : 31.250 FPS (1536 SPF)
    Compression mode                         : Lossy
    Stream size                              : 570 MiB (13%)
    Language                                 : German
    Service kind                             : Complete Main
    Default                                  : No
    Forced                                   : No
    Complexity index                         : 16
    Number of dynamic objects                : 15
    Bed channel count                        : 1 channel
    Bed channel configuration                : LFE

    Audio #3
    ID                                       : 4
    Format                                   : E-AC-3 JOC
    Format/Info                              : Enhanced AC-3 with Joint Object Coding
    Commercial name                          : Dolby Digital Plus with Dolby Atmos
    Codec ID                                 : A_EAC3
    Duration                                 : 1 h 43 min
    Bit rate mode                            : Constant
    Bit rate                                 : 768 kb/s
    Channel(s)                               : 6 channels
    Channel layout                           : L R C LFE Ls Rs
    Sampling rate                            : 48.0 kHz
    Frame rate                               : 31.250 FPS (1536 SPF)
    Compression mode                         : Lossy
    Stream size                              : 570 MiB (13%)
    Language                                 : English
    Service kind                             : Complete Main
    Default                                  : No
    Forced                                   : No
    Complexity index                         : 16
    Number of dynamic objects                : 15
    Bed channel count                        : 1 channel
    Bed channel configuration                : LFE

    Audio #4
    ID                                       : 5
    Format                                   : E-AC-3
    Format/Info                              : Enhanced AC-3
    Commercial name                          : Dolby Digital Plus
    Codec ID                                 : A_EAC3
    Duration                                 : 1 h 43 min
    Bit rate mode                            : Constant
    Bit rate                                 : 640 kb/s
    Channel(s)                               : 6 channels
    Channel layout                           : L R C LFE Ls Rs
    Sampling rate                            : 48.0 kHz
    Frame rate                               : 31.250 FPS (1536 SPF)
    Compression mode                         : Lossy
    Stream size                              : 475 MiB (11%)
    Language                                 : Hungarian
    Service kind                             : Complete Main
    Default                                  : No
    Forced                                   : No

    Audio #5
    ID                                       : 6
    Format                                   : E-AC-3 JOC
    Format/Info                              : Enhanced AC-3 with Joint Object Coding
    Commercial name                          : Dolby Digital Plus with Dolby Atmos
    Codec ID                                 : A_EAC3
    Duration                                 : 1 h 43 min
    Bit rate mode                            : Constant
    Bit rate                                 : 768 kb/s
    Channel(s)                               : 6 channels
    Channel layout                           : L R C LFE Ls Rs
    Sampling rate                            : 48.0 kHz
    Frame rate                               : 31.250 FPS (1536 SPF)
    Compression mode                         : Lossy
    Stream size                              : 570 MiB (13%)
    Language                                 : Norwegian Bokmal
    Service kind                             : Complete Main
    Default                                  : No
    Forced                                   : No
    Complexity index                         : 16
    Number of dynamic objects                : 15
    Bed channel count                        : 1 channel
    Bed channel configuration                : LFE

    Audio #6
    ID                                       : 7
    Format                                   : E-AC-3
    Format/Info                              : Enhanced AC-3
    Commercial name                          : Dolby Digital Plus
    Codec ID                                 : A_EAC3
    Duration                                 : 1 h 43 min
    Bit rate mode                            : Constant
    Bit rate                                 : 640 kb/s
    Channel(s)                               : 6 channels
    Channel layout                           : L R C LFE Ls Rs
    Sampling rate                            : 48.0 kHz
    Frame rate                               : 31.250 FPS (1536 SPF)
    Compression mode                         : Lossy
    Stream size                              : 475 MiB (11%)
    Language                                 : Ukrainian
    Service kind                             : Complete Main
    Default                                  : No
    Forced                                   : No

    Text #1
    ID                                       : 8
    Format                                   : UTF-8
    Codec ID                                 : S_TEXT/UTF8
    Codec ID/Info                            : UTF-8 Plain Text
    Duration                                 : 1 h 41 min
    Bit rate                                 : 42 b/s
    Frame rate                               : 0.177 FPS
    Count of elements                        : 1079
    Stream size                              : 31.6 KiB (0%)
    Language                                 : Czech
    Default                                  : No
    Forced                                   : No

    Text #2
    ID                                       : 9
    Format                                   : UTF-8
    Codec ID                                 : S_TEXT/UTF8
    Codec ID/Info                            : UTF-8 Plain Text
    Duration                                 : 1 h 41 min
    Bit rate                                 : 1 b/s
    Frame rate                               : 0.006 FPS
    Count of elements                        : 39
    Stream size                              : 1.25 KiB (0%)
    Language                                 : Czech
    Default                                  : Yes
    Forced                                   : No

    Text #3
    ID                                       : 10
    Format                                   : UTF-8
    Codec ID                                 : S_TEXT/UTF8
    Codec ID/Info                            : UTF-8 Plain Text
    Duration                                 : 1 h 41 min
    Bit rate                                 : 44 b/s
    Frame rate                               : 0.168 FPS
    Count of elements                        : 1018
    Stream size                              : 33.3 KiB (0%)
    Language                                 : German
    Default                                  : No
    Forced                                   : No

    Text #4
    ID                                       : 11
    Format                                   : UTF-8
    Codec ID                                 : S_TEXT/UTF8
    Codec ID/Info                            : UTF-8 Plain Text
    Duration                                 : 1 h 41 min
    Bit rate                                 : 0 b/s
    Frame rate                               : 0.003 FPS
    Count of elements                        : 21
    Stream size                              : 649 Bytes (0%)
    Language                                 : German
    Default                                  : No
    Forced                                   : No

    Text #5
    ID                                       : 12
    Format                                   : UTF-8
    Codec ID                                 : S_TEXT/UTF8
    Codec ID/Info                            : UTF-8 Plain Text
    Duration                                 : 1 h 33 min
    Bit rate                                 : 52 b/s
    Frame rate                               : 0.223 FPS
    Count of elements                        : 1254
    Stream size                              : 35.8 KiB (0%)
    Language                                 : English
    Default                                  : No
    Forced                                   : No

    Text #6
    ID                                       : 13
    Format                                   : UTF-8
    Codec ID                                 : S_TEXT/UTF8
    Codec ID/Info                            : UTF-8 Plain Text
    Duration                                 : 1 h 40 min
    Bit rate                                 : 0 b/s
    Frame rate                               : 0.004 FPS
    Count of elements                        : 27
    Stream size                              : 730 Bytes (0%)
    Language                                 : English
    Default                                  : No
    Forced                                   : No

    Text #7
    ID                                       : 14
    Format                                   : UTF-8
    Codec ID                                 : S_TEXT/UTF8
    Codec ID/Info                            : UTF-8 Plain Text
    Duration                                 : 1 h 40 min
    Bit rate                                 : 39 b/s
    Frame rate                               : 0.180 FPS
    Count of elements                        : 1087
    Stream size                              : 29.3 KiB (0%)
    Language                                 : English
    Default                                  : No
    Forced                                   : No

    Text #8
    ID                                       : 15
    Format                                   : UTF-8
    Codec ID                                 : S_TEXT/UTF8
    Codec ID/Info                            : UTF-8 Plain Text
    Duration                                 : 1 h 41 min
    Bit rate                                 : 62 b/s
    Frame rate                               : 0.281 FPS
    Count of elements                        : 1703
    Stream size                              : 46.3 KiB (0%)
    Language                                 : English
    Default                                  : No
    Forced                                   : No

    Text #9
    ID                                       : 16
    Format                                   : UTF-8
    Codec ID                                 : S_TEXT/UTF8
    Codec ID/Info                            : UTF-8 Plain Text
    Duration                                 : 1 h 41 min
    Bit rate                                 : 43 b/s
    Frame rate                               : 0.187 FPS
    Count of elements                        : 1135
    Stream size                              : 32.4 KiB (0%)
    Language                                 : Hungarian
    Default                                  : No
    Forced                                   : No

    Text #10
    ID                                       : 17
    Format                                   : UTF-8
    Codec ID                                 : S_TEXT/UTF8
    Codec ID/Info                            : UTF-8 Plain Text
    Duration                                 : 1 h 41 min
    Bit rate                                 : 1 b/s
    Frame rate                               : 0.006 FPS
    Count of elements                        : 39
    Stream size                              : 1.34 KiB (0%)
    Language                                 : Hungarian
    Default                                  : No
    Forced                                   : No

    Text #11
    ID                                       : 18
    Format                                   : UTF-8
    Codec ID                                 : S_TEXT/UTF8
    Codec ID/Info                            : UTF-8 Plain Text
    Duration                                 : 1 h 35 min
    Bit rate                                 : 53 b/s
    Frame rate                               : 0.194 FPS
    Count of elements                        : 1108
    Stream size                              : 37.0 KiB (0%)
    Language                                 : Norwegian Bokmal
    Default                                  : No
    Forced                                   : No

    Text #12
    ID                                       : 19
    Format                                   : UTF-8
    Codec ID                                 : S_TEXT/UTF8
    Codec ID/Info                            : UTF-8 Plain Text
    Duration                                 : 2 s 0 ms
    Bit rate                                 : 124 b/s
    Frame rate                               : 0.500 FPS
    Count of elements                        : 1
    Stream size                              : 31.0 Bytes (0%)
    Language                                 : Norwegian Bokmal
    Default                                  : No
    Forced                                   : No

    Text #13
    ID                                       : 20
    Format                                   : UTF-8
    Codec ID                                 : S_TEXT/UTF8
    Codec ID/Info                            : UTF-8 Plain Text
    Duration                                 : 1 h 40 min
    Bit rate                                 : 5 b/s
    Frame rate                               : 0.015 FPS
    Count of elements                        : 88
    Stream size                              : 3.82 KiB (0%)
    Language                                 : Ukrainian
    Default                                  : No
    Forced                                   : No

    Text #14
    ID                                       : 21
    Format                                   : UTF-8
    Codec ID                                 : S_TEXT/UTF8
    Codec ID/Info                            : UTF-8 Plain Text
    Duration                                 : 1 h 41 min
    Bit rate                                 : 65 b/s
    Frame rate                               : 0.188 FPS
    Count of elements                        : 1144
    Stream size                              : 48.7 KiB (0%)
    Language                                 : Ukrainian
    Default                                  : No
    Forced                                   : No




    ONLINE




    Upozornenie:
    Ziadny zo zobrazených súborov sa nenachádza na tomto serveri. Server slúzi len k síreniu vlastnorucne vytvorených aplikácií, videí, hudby ai. Autori stránok nenesú ziadnu zodpovednost za zverejnené odkazy, komentáre a obsah súborov. Vsetky komentáre, odkazy, súbory ktoré by svojou povahou mohli byt v rozpore zo zákonmi sem vkladáte na vlastnú zodpovednost. Autori stránok si vyhradzujú právo cenzúry odkazov, komentárov príp. súborov, ktoré by svojou povahou mohli byt v rozpore zo zákonmi a dobrými mravmi. Dodrzujte pravidlá!





    0
    evik1
    Ratio 2.16

    Member+

    30/03/2023 12.42.56
    dobry film


    Back

    Na serveru se nenalézají zádne soubory. Za odkazy jsou výhradně zodpovědní uzivatelé a návstěvníci tohoto trackeru. Administrátor není zodpovědný za pridaný obsah ani za skody zpusobené uzivateli. Nesmíte pouzívat tuto webovou stránku pro distribuovaní nebo download zádného materiálu pokud nemáte povolení od príslusného vlastníka práv. Uzivatelé jsou zodpovědní za dodrzování těchto pravidel a podmínek. Owner má právo kdykoliv změnit pravidla tohoto trackeru.

    [ Script trval: 0.084 sec. ] - [ GZIP: enabled ]
    Je zhruba 06:59
    sql

    TOPlist