Tvoj čet nieje VIP.
Preto s tvoje funkcie a možnosti značne obmedzen.
Pre aktivciu VIP klikni sem.

Trollhunters - Tales of Arcadia / Lovci trolu: Pribehy z Arkadie (S03)(1080p)(AVC)(WebDl)(EN-DE-JP)(CZ tit+MultiSUB) = CSFD 82% | SkTorrent.eu

Cz-SkTorrent open Tracker, na voln zdielanie sborov. Pridajte sa k nasej komunite a zskajte pristup k tiscom torrentov.

  • vysok rchlost
  • plne zdarma
  • prevazne Slovenska a Ceska scena
  • ste tu s nami uz 5 rokov - Dakujeme
  • Vitaj Guest (Login) Ako stahovat
    torrenty?
    Torrenty:
    v1 textov
    v2 obrzkov
    Ako sa stat
    Uploaderom
    Online
    Filmy
    Forum
    Pravidl
    BitTorrent
    klient
    Meno: Heslo:
    Zaregistrovat
    Po zaregistrovan mozte volne stahovat
    Zabudol som heslo

    Trollhunters - Tales of Arcadia / Lovci trolu: Pribehy z Arkadie (S03)(1080p)(AVC)(WebDl)(EN-DE-JP)(CZ tit+MultiSUB) = CSFD 82% Nzov:Trollhunters - Tales of Arcadia / Lovci trolu: Pribehy z Arkadie (S03)(1080p)(AVC)(WebDl)(EN-DE-JP)(CZ tit+MultiSUB) = CSFD 82% Hodnocen:N/A Stiahnut
    Pozriet Online
    Kategria:Seril Velikost:6.2 GB BitTorrent klient
    Pridan: Sbory:
    Skontrolovn:2022-11-20 Peerov:4 (Seed: 4, Leech: 0)
    Zaner:Akcni,Animovany,Dobrodruzny,Komedie Uploader:Uvidis, az ked budes
    VIP
    Kp nm Pivo 1,10€

    Kp nm Pivo
    Pridaj do zalozky
    Pridaj do zalozky





    [center]






    Movie Name: Trollhunters: Tales of Arcadia (S03)(2018)(Complete)
    IMDb Rating: 8.4/10

    Quality: 1080p (WebDL)
    Language: AAC 2.0 - English , German , Polish
    Subtitles: Multi
    Director: Rodrigo Blaas, Guillermo del Toro, Elaine Bogan, Simon Otto, Andrew L. Schmidt, Johane Matte
    Writers: Guillermo del Toro
    Genres: Adventure | Animation | Action |


    An ordinary boy finds a magic amulet that chooses him to be a Trollhunter, a guardian that defends the world of humans and the secret world of trolls.





    [/center]
    Format                                   : MPEG-4
    Format profile                           : Base Media
    Codec ID                                 : isom (isom/iso2/avc1/mp41)
    File size                                : 494 MiB
    Duration                                 : 23 min 40 s
    Overall bit rate mode                    : Variable
    Overall bit rate                         : 2 916 kb/s
    Collection                               : Lovci trol: Pbhy z Arkdie
    Season                                   : 3
    Track name                               : Non hldka
    Description                              : Trolov se skrvaj vArcadii aAaarrr tajn zjiuje, co Gunmar chyst. Jim pak zane rlit na soupee, kter mu mon zk cestu.
    Writing application                      : Lavf58.76.100
    Cover                                    : Yes
    Part_ID                                  : 1

    Video
    ID                                       : 1
    Format                                   : AVC
    Format/Info                              : Advanced Video Codec
    Format profile                           : High@L4
    Format settings                          : CABAC / 4 Ref Frames
    Format settings, CABAC                   : Yes
    Format settings, Reference frames        : 4 frames
    Codec ID                                 : avc1
    Codec ID/Info                            : Advanced Video Coding
    Duration                                 : 23 min 39 s
    Bit rate mode                            : Variable
    Bit rate                                 : 2 525 kb/s
    Maximum bit rate                         : 20.0 Mb/s
    Width                                    : 1 920 pixels
    Height                                   : 1 080 pixels
    Display aspect ratio                     : 16:9
    Frame rate mode                          : Constant
    Frame rate                               : 23.976 (24000/1001) FPS
    Color space                              : YUV
    Chroma subsampling                       : 4:2:0
    Bit depth                                : 8 bits
    Scan type                                : Progressive
    Bits/(Pixel*Frame)                       : 0.051
    Stream size                              : 427 MiB (87%)

    Audio #1
    ID                                       : 3
    Format                                   : AAC LC SBR
    Format/Info                              : Advanced Audio Codec Low Complexity with Spectral Band Replication
    Commercial name                          : HE-AAC
    Format settings                          : Explicit
    Codec ID                                 : mp4a-40-2
    Duration                                 : 23 min 40 s
    Bit rate mode                            : Constant
    Bit rate                                 : 128 kb/s
    Channel(s)                               : 2 channels
    Channel layout                           : L R
    Sampling rate                            : 48.0 kHz
    Frame rate                               : 23.438 FPS (2048 SPF)
    Compression mode                         : Lossy
    Stream size                              : 21.7 MiB (4%)
    Title                                    : nmina
    Language                                 : German
    Default                                  : Yes
    Alternate group                          : 2

    Audio #2
    ID                                       : 4
    Format                                   : AAC LC SBR
    Format/Info                              : Advanced Audio Codec Low Complexity with Spectral Band Replication
    Commercial name                          : HE-AAC
    Format settings                          : Explicit
    Codec ID                                 : mp4a-40-2
    Duration                                 : 23 min 40 s
    Bit rate mode                            : Constant
    Bit rate                                 : 128 kb/s
    Channel(s)                               : 2 channels
    Channel layout                           : L R
    Sampling rate                            : 48.0 kHz
    Frame rate                               : 23.438 FPS (2048 SPF)
    Compression mode                         : Lossy
    Stream size                              : 21.7 MiB (4%)
    Title                                    : anglitina [Originl]
    Language                                 : English
    Default                                  : Yes
    Alternate group                          : 3

    Audio #3
    ID                                       : 5
    Format                                   : AAC LC SBR
    Format/Info                              : Advanced Audio Codec Low Complexity with Spectral Band Replication
    Commercial name                          : HE-AAC
    Format settings                          : Explicit
    Codec ID                                 : mp4a-40-2
    Duration                                 : 23 min 40 s
    Bit rate mode                            : Constant
    Bit rate                                 : 128 kb/s
    Channel(s)                               : 2 channels
    Channel layout                           : L R
    Sampling rate                            : 48.0 kHz
    Frame rate                               : 23.438 FPS (2048 SPF)
    Compression mode                         : Lossy
    Stream size                              : 21.7 MiB (4%)
    Title                                    : poltina
    Language                                 : Polish
    Default                                  : Yes
    Alternate group                          : 4

    Text #1
    ID                                       : 6
    Format                                   : Timed Text
    Muxing mode                              : sbtl
    Codec ID                                 : tx3g
    Duration                                 : 22 min 41 s
    Bit rate mode                            : Variable
    Bit rate                                 : 67 b/s
    Stream size                              : 11.2 KiB (0%)
    Title                                    : etina
    Language                                 : Czech
    Default                                  : Yes
    Forced                                   : No
    Alternate group                          : 5

    Text #2
    ID                                       : 7
    Format                                   : Timed Text
    Muxing mode                              : sbtl
    Codec ID                                 : tx3g
    Duration                                 : 22 min 18 s
    Bit rate mode                            : Variable
    Bit rate                                 : 63 b/s
    Stream size                              : 10.2 KiB (0%)
    Title                                    : nmina
    Language                                 : German
    Default                                  : No
    Forced                                   : No
    Alternate group                          : 6

    Text #3
    ID                                       : 8
    Format                                   : Timed Text
    Muxing mode                              : sbtl
    Codec ID                                 : tx3g
    Duration                                 : 9 s 926 ms
    Duration_FirstFrame                      : 3 s 754 ms
    Bit rate mode                            : Variable
    Bit rate                                 : 27 b/s
    Stream size                              : 33.0 Bytes (0%)
    Title                                    : German [ForcedNarrative]
    Language                                 : German
    Default                                  : No
    Forced                                   : No
    Alternate group                          : 7

    Text #4
    ID                                       : 9
    Format                                   : Timed Text
    Muxing mode                              : sbtl
    Codec ID                                 : tx3g
    Duration                                 : 22 min 15 s
    Bit rate mode                            : Variable
    Bit rate                                 : 90 b/s
    Stream size                              : 14.7 KiB (0%)
    Title                                    : anglitina [CC]
    Language                                 : English
    Default                                  : No
    Forced                                   : No
    Alternate group                          : 8

    Text #5
    ID                                       : 10
    Format                                   : Timed Text
    Muxing mode                              : sbtl
    Codec ID                                 : tx3g
    Duration                                 : 22 min 41 s
    Bit rate mode                            : Variable
    Bit rate                                 : 60 b/s
    Stream size                              : 10.0 KiB (0%)
    Title                                    : maartina
    Language                                 : Hungarian
    Default                                  : No
    Forced                                   : No
    Alternate group                          : 9

    Text #6
    ID                                       : 11
    Format                                   : Timed Text
    Muxing mode                              : sbtl
    Codec ID                                 : tx3g
    Duration                                 : 22 min 43 s
    Bit rate mode                            : Variable
    Bit rate                                 : 1 b/s
    Stream size                              : 104 Bytes (0%)
    Title                                    : Polish [ForcedNarrative]
    Language                                 : Polish
    Default                                  : No
    Forced                                   : No
    Alternate group                          : 10

    Text #7
    ID                                       : 12
    Format                                   : Timed Text
    Muxing mode                              : sbtl
    Codec ID                                 : tx3g
    Duration                                 : 22 min 43 s
    Bit rate mode                            : Variable
    Bit rate                                 : 69 b/s
    Stream size                              : 11.4 KiB (0%)
    Title                                    : poltina
    Language                                 : Polish
    Default                                  : No
    Forced                                   : No
    Alternate group                          : 11











    + Pridaj vlastnu verziu tohto torrentu +


    Upozornenie:
    Ziadny zo zobrazench sborov sa nenachdza na tomto serveri. Server slzi len k sreniu vlastnorucne vytvorench aplikci, vide, hudby ai. Autori strnok nenes ziadnu zodpovednost za zverejnen odkazy, komentre a obsah sborov. Vsetky komentre, odkazy, sbory ktor by svojou povahou mohli byt v rozpore zo zkonmi sem vkladte na vlastn zodpovednost. Autori strnok si vyhradzuj prvo cenzry odkazov, komentrov prp. sborov, ktor by svojou povahou mohli byt v rozpore zo zkonmi a dobrmi mravmi. Dodrzujte pravidl!


    No comments...


    Back

    Na serveru se nenalzaj zdne soubory. Za odkazy jsou vhradn zodpovdn uzivatel a nvstvnci tohoto trackeru. Administrtor nen zodpovdn za pridan obsah ani za skody zpusoben uzivateli. Nesmte pouzvat tuto webovou strnku pro distribuovan nebo download zdnho materilu pokud nemte povolen od prslusnho vlastnka prv. Uzivatel jsou zodpovdn za dodrzovn tchto pravidel a podmnek. Owner m prvo kdykoliv zmnit pravidla tohoto trackeru.

    [ Script trval: 0.026 sec. ] - [ GZIP: enabled ]
    Je zhruba 17:37
    memcache

    TOPlist