Tvoj účet nieje VIP.
Preto sú tvoje funkcie a možnosti značne obmedzené.
Pre aktiváciu VIP klikni sem.

Tugger - Dzip, ktery chtel letat / Tugger: The Jeep 4x4 Who Wanted to Fly (2005)(CZ) = CSFD 38% | SkTorrent.eu

Cz-SkTorrent open Tracker, na volné zdieľanie súborov. Pridajte sa k našej komunite a získajte prístup k tisícom torrentov.

  • vysoká rýchlosť
  • úplne zdarma
  • prevažne Slovenská a Česká scéna
  • ste tu s nami už 10 rokov - Ďakujeme
  • Vitaj Guest (Login) Ako stahovat
    torrenty?
    Torrenty:
    v1 textová
    v2 obrázková
    Ako sa stat
    Uploaderom
    Online
    Filmy
    Forum
    Pravidlá
    SkTSocial
    BitTorrent
    klient
    Meno: Heslo:
    Zaregistrovat
    Po zaregistrovaní mozte volne stahovat
    Zabudol som heslo

    Tugger - Dzip, ktery chtel letat / Tugger: The Jeep 4x4 Who Wanted to Fly (2005)(CZ) = CSFD 38% Názov:Tugger - Dzip, ktery chtel letat / Tugger: The Jeep 4x4 Who Wanted to Fly (2005)(CZ) = CSFD 38% Hodnocení: Stiahnut
    Pozriet Online
    Kategória:Filmy Kreslené - Velikost:728.2 MB BitTorrent klient
    Pridaný: Súbory:
    Skontrolován:2013-12-13 Peerov:0 (Seed: 0, Leech: 0)
    Zaner:Animovany Uploader:Uvidis, az ked budes
    VIP
    Kúp nám Pivo 1,10€

    Kúp nám Pivo

    Pridaj do zalozky
    Pridaj do zalozky




    Jazyk: 2.0 CZ
    Titulky: Ne
    Animovaný
    http://www.csfd.cz/film/293115-tugger-dzip-ktery-chtel-letat/
    USA - 2005,60 min




    Před mnoha lety jednomu takovému jménem Tugger zaměnili ventilátor v chladičiza vrtuli z letadla a on měl od té doby jeden velký sen – stát se letadlem!A když svou armádní kariéru ukončil na jednom malém letišti, byl o krůček blíž jeho uskutečnění. A to je také začátek našeho příběhu. Dámy a pánové, holky i kluci. Přichází TUGGER - džíp, který chtěl létat a s ním nejbláznivější příběh, jaký jste kdy viděli.

    Format                                   : AVI
    Format/Info                              : Audio Video Interleave
    File size                                : 728 MiB
    Duration                                 : 59mn 31s
    Overall bit rate                         : 1 710 Kbps
    Movie name                               : TUGGER.Title3
    Writing application                      : Lavf53.32.100
    Original source form/Name                : TUGGER

    Video
    ID                                       : 0
    Format                                   : AVC
    Format/Info                              : Advanced Video Codec
    Format profile                           : Main@L3.0
    Format settings, CABAC                   : Yes
    Format settings, ReFrames                : 1 frame
    Codec ID                                 : H264
    Duration                                 : 59mn 31s
    Bit rate                                 : 1 507 Kbps
    Width                                    : 720 pixels
    Height                                   : 556 pixels
    Display aspect ratio                     : 1.295
    Frame rate                               : 25.000 fps
    Color space                              : YUV
    Chroma subsampling                       : 4:2:0
    Bit depth                                : 8 bits
    Scan type                                : Progressive
    Bits/(Pixel*Frame)                       : 0.151
    Stream size                              : 642 MiB (88%)
    Writing library                          : x264 core
    Color primaries                          : BT.601 NTSC
    Transfer characteristics                 : BT.709
    Matrix coefficients                      : BT.601

    Audio
    ID                                       : 1
    Format                                   : AC-3
    Format/Info                              : Audio Coding 3
    Mode extension                           : CM (complete main)
    Format settings, Endianness              : Big
    Codec ID                                 : 2000
    Duration                                 : 59mn 31s
    Bit rate mode                            : Constant
    Bit rate                                 : 192 Kbps
    Channel count                            : 2 channels
    Channel positions                        : Front: L R
    Sampling rate                            : 48.0 KHz
    Bit depth                                : 16 bits
    Compression mode                         : Lossy
    Stream size                              : 81.7 MiB (11%)
    Alignment                                : Aligned on interleaves
    Interleave, duration                     : 32 ms (0.80 video frame)











    + Pridaj vlastnu verziu tohto torrentu +


    Upozornenie:
    Ziadny zo zobrazených súborov sa nenachádza na tomto serveri. Server slúzi len k síreniu vlastnorucne vytvorených aplikácií, videí, hudby ai. Autori stránok nenesú ziadnu zodpovednost za zverejnené odkazy, komentáre a obsah súborov. Vsetky komentáre, odkazy, súbory ktoré by svojou povahou mohli byt v rozpore zo zákonmi sem vkladáte na vlastnú zodpovednost. Autori stránok si vyhradzujú právo cenzúry odkazov, komentárov príp. súborov, ktoré by svojou povahou mohli byt v rozpore zo zákonmi a dobrými mravmi. Dodrzujte pravidlá!


    No comments...


    Back

    Na serveru se nenalézají zádne soubory. Za odkazy jsou výhradně zodpovědní uzivatelé a návstěvníci tohoto trackeru. Administrátor není zodpovědný za pridaný obsah ani za skody zpusobené uzivateli. Nesmíte pouzívat tuto webovou stránku pro distribuovaní nebo download zádného materiálu pokud nemáte povolení od príslusného vlastníka práv. Uzivatelé jsou zodpovědní za dodrzování těchto pravidel a podmínek. Owner má právo kdykoliv změnit pravidla tohoto trackeru.

    [ Script trval: 0.075 sec. ] - [ GZIP: enabled ]
    Je zhruba 11:16
    memcache

    TOPlist