Tvoj účet nieje VIP.
Preto sú tvoje funkcie a možnosti značne obmedzené.
Pre aktiváciu VIP klikni sem.

Ty / You (S01)(CZ/EN)(2018)(1080p-x264)(WEB-DL) = CSFD 78% | SkTorrent.eu

Cz-SkTorrent open Tracker, na volné zdieľanie súborov. Pridajte sa k našej komunite a získajte prístup k tisícom torrentov.

  • vysoká rýchlosť
  • úplne zdarma
  • prevažne Slovenská a Česká scéna
  • ste tu s nami už 10 rokov - Ďakujeme
  • Vitaj Guest (Login) Ako stahovat
    torrenty?
    Torrenty:
    v1 textová
    v2 obrázková
    Ako sa stat
    Uploaderom
    Online
    Filmy
    Forum
    Pravidlá
    SkTSocial
    BitTorrent
    klient
    Meno: Heslo:
    Zaregistrovat
    Po zaregistrovaní mozte volne stahovat
    Zabudol som heslo

    Ty / You (S01)(CZ/EN)(2018)(1080p-x264)(WEB-DL) = CSFD 78% Názov:Ty / You (S01)(CZ/EN)(2018)(1080p-x264)(WEB-DL) = CSFD 78% Hodnocení:N/A Stiahnut
    Pozriet Online
    Kategória:Seriál - Velikost:21.9 GB BitTorrent klient
    Pridaný: Súbory:
    Skontrolován:2023-01-19 Peerov:10 (Seed: 10, Leech: 0)
    Zaner:Drama,Krimi,Romanticky,Thriller Uploader:Uvidis, az ked budes
    VIP
    Kúp nám Pivo 1,10€

    Kúp nám Pivo

    Pridaj do zalozky
    Pridaj do zalozky





    Video: 1080p MKV x264
    Audio: CZ/EN - 5.1 - 640kb/s
    Jazyk: CZ/EN + CZ forced




    Krimi / Drama / Romantický / Thriller
    USA, 2018, 7 h 22 min (Minutáž: 42–48 min)


    ČSFD: https://www.csfd.cz/film/610642-ty/610643-serie-1/prehled/

    Tvůrci: Greg Berlanti, Sera Gamble
    Režie: Lee Toland Krieger, Erin Feeley, Marcos Siega (více)
    Předloha: Caroline Kepnes (kniha)
    Scénář: Sera Gamble, Greg Berlanti, April Blair, Neil Reynolds
    Kamera: David Lanzenberg, W. Mott Hupfel III
    Hudba: Blake Neely
    Hrají: Penn Badgley, Elizabeth Lail, Shay Mitchell, Luca Padovan, Nicole Kang, Mark Blum, Daniel Cosgrove, Victoria Cartagena, Reg Rogers
    Produkce: Jason Sokoloff, Ryan Lindenberg, Adria Lang
    Střih: Harry Jierjian, Troy Takaki, Gaston Jaren Lopez
    Zvuk: Kenneth Kobett, Gary D. Rogers
    Scénografie: Sarah Knowles, Betsy Klompus
    Kostýmy: Donna Maloney

    Popis:
    Brilantní manažer knihkupectví posedlý nadějnou spisovatelkou začíná nenápadně a strategicky likvidovat všechny překážky, které mezi nimi stojí. (Netflix)


    Formát                                   : Matroska
    Format version                           : Version 4
    Velikost souboru                         : 2,02 GiB
    Duration                                 : 48 min 53 s
    Overall bit rate mode                    : Variable
    Celkový BitRate                          : 5 904 kb/s
    Název filmu                              : Release for TeamHD
    Encoded date                             : UTC 2023-01-15 21:45:08
    Použitý software                         : mkvmerge v72.0.0 ('Minuano (Six-eight)') 64-bit
    Enkódoval                                : libebml v1.4.4 + libmatroska v1.7.1

    Video
    ID                                       : 1
    Formát                                   : AVC
    Formát/Info                              : Advanced Video Codec
    Format profile                           : High@L4
    Format settings                          : CABAC / 4 Ref Frames
    Format settings, CABAC                   : Ano
    Format settings, Reference frames        : 4 frames
    Codec ID                                 : V_MPEG4/ISO/AVC
    Duration                                 : 48 min 43 s
    Bit rate mode                            : Variable
    Bit rate                                 : 4 831 kb/s
    Maximum bit rate                         : 20,0 Mb/s
    Šířka                                    : 1 920pixely
    Výška                                    : 1 080pixely
    Poměr stran                              : 16:9
    Frame rate mode                          : Constant
    Frame rate                               : 23,976 (24000/1001) FPS
    Color space                              : YUV
    Chroma subsampling                       : 4:2:0
    Bit depth                                : 8 bits
    Scan type                                : Progressive
    Bits/(Pixel*Frame)                       : 0.097
    Stream size                              : 1,64 GiB (82%)
    Enkódoval                                : x264 core 148 r2715 7e75228
    Nastavení enkoderu                       : cabac=1 / ref=4 / deblock=1:0:0 / analyse=0x3:0x111 / me=umh / subme=10 / psy=1 / psy_rd=1.00:0.00 / mixed_ref=1 / me_range=120 / chroma_me=1 / trellis=2 / 8x8dct=1 / cqm=0 / deadzone=21,11 / fast_pskip=1 / chroma_qp_offset=-2 / threads=6 / lookahead_threads=1 / sliced_threads=0 / nr=0 / decimate=1 / interlaced=0 / bluray_compat=0 / stitchable=1 / constrained_intra=0 / bframes=16 / b_pyramid=2 / b_adapt=2 / b_bias=0 / direct=3 / weightb=1 / open_gop=0 / weightp=2 / keyint=240 / keyint_min=121 / scenecut=0 / intra_refresh=0 / rc_lookahead=240 / rc=crf / mbtree=1 / crf=16.0 / qcomp=0.50 / qpmin=6 / qpmax=51 / qpstep=4 / vbv_maxrate=20000 / vbv_bufsize=25000 / crf_max=0.0 / nal_hrd=vbr / filler=0 / ip_ratio=1.40 / aq=1:0.80
    Default                                  : Ano
    Forced                                   : Ne

    Audio #1
    ID                                       : 2
    Formát                                   : E-AC-3
    Formát/Info                              : Enhanced AC-3
    Commercial name                          : Dolby Digital Plus
    Codec ID                                 : A_EAC3
    Duration                                 : 48 min 45 s
    Bit rate mode                            : Constant
    Bit rate                                 : 448 kb/s
    Kanál(y)                                 : 6 kanály
    Channel layout                           : L R C LFE Ls Rs
    Sampling rate                            : 48,0 kHz
    Frame rate                               : 31,250 FPS (1536 SPF)
    Compression mode                         : Lossy
    Stream size                              : 156 MiB (8%)
    Titul                                    : English
    Jazyk                                    : English
    Service kind                             : Complete Main
    Default                                  : Ne
    Forced                                   : Ne

    Audio #2
    ID                                       : 3
    Formát                                   : E-AC-3
    Formát/Info                              : Enhanced AC-3
    Commercial name                          : Dolby Digital Plus
    Codec ID                                 : A_EAC3
    Duration                                 : 48 min 53 s
    Bit rate mode                            : Constant
    Bit rate                                 : 640 kb/s
    Kanál(y)                                 : 6 kanály
    Channel layout                           : L R C LFE Ls Rs
    Sampling rate                            : 48,0 kHz
    Frame rate                               : 31,250 FPS (1536 SPF)
    Bit depth                                : 32 bits
    Compression mode                         : Lossy
    Stream size                              : 224 MiB (11%)
    Titul                                    : Czech
    Jazyk                                    : Czech
    Service kind                             : Complete Main
    Default                                  : Ano
    Forced                                   : Ne

    Text #1
    ID                                       : 4
    Formát                                   : UTF-8
    Codec ID                                 : S_TEXT/UTF8
    Codec ID/Info                            : UTF-8 Plain Text
    Duration                                 : 47 min 13 s
    Bit rate                                 : 93 b/s
    Frame rate                               : 0,287 FPS
    Count of elements                        : 812
    Stream size                              : 32,3 KiB (0%)
    Titul                                    : SDH
    Jazyk                                    : English
    Default                                  : Ne
    Forced                                   : Ne

    Text #2
    ID                                       : 5
    Formát                                   : ASS
    Codec ID                                 : S_TEXT/ASS
    Codec ID/Info                            : Advanced Sub Station Alpha
    Duration                                 : 47 min 25 s
    Bit rate                                 : 114 b/s
    Frame rate                               : 0,253 FPS
    Count of elements                        : 720
    Compression mode                         : Lossless
    Stream size                              : 39,8 KiB (0%)
    Titul                                    : Czech
    Jazyk                                    : Czech
    Default                                  : Ne
    Forced                                   : Ne

    Text #3
    ID                                       : 6
    Formát                                   : ASS
    Codec ID                                 : S_TEXT/ASS
    Codec ID/Info                            : Advanced Sub Station Alpha
    Duration                                 : 47 min 25 s
    Bit rate                                 : 2 b/s
    Frame rate                               : 0,006 FPS
    Count of elements                        : 16
    Compression mode                         : Lossless
    Stream size                              : 835 Bytes (0%)
    Titul                                    : Czech (Forced Narrative)
    Jazyk                                    : Czech
    Default                                  : Ano
    Forced                                   : Ne













    hudrbica,

    + Pridaj vlastnu verziu tohto torrentu +


    Upozornenie:
    Ziadny zo zobrazených súborov sa nenachádza na tomto serveri. Server slúzi len k síreniu vlastnorucne vytvorených aplikácií, videí, hudby ai. Autori stránok nenesú ziadnu zodpovednost za zverejnené odkazy, komentáre a obsah súborov. Vsetky komentáre, odkazy, súbory ktoré by svojou povahou mohli byt v rozpore zo zákonmi sem vkladáte na vlastnú zodpovednost. Autori stránok si vyhradzujú právo cenzúry odkazov, komentárov príp. súborov, ktoré by svojou povahou mohli byt v rozpore zo zákonmi a dobrými mravmi. Dodrzujte pravidlá!


    No comments...


    Back

    Na serveru se nenalézají zádne soubory. Za odkazy jsou výhradně zodpovědní uzivatelé a návstěvníci tohoto trackeru. Administrátor není zodpovědný za pridaný obsah ani za skody zpusobené uzivateli. Nesmíte pouzívat tuto webovou stránku pro distribuovaní nebo download zádného materiálu pokud nemáte povolení od príslusného vlastníka práv. Uzivatelé jsou zodpovědní za dodrzování těchto pravidel a podmínek. Owner má právo kdykoliv změnit pravidla tohoto trackeru.

    [ Script trval: 0.082 sec. ] - [ GZIP: enabled ]
    Je zhruba 12:09
    memcache

    TOPlist