Tvoj účet nieje VIP.
Preto sú tvoje funkcie a možnosti značne obmedzené.
Pre aktiváciu VIP klikni sem.

Ty / You (S02)(CZ/EN)(2019)(1080p-HEVC-10bit-HDR)(WEB-DL) = CSFD 78% | SkTorrent.eu

Cz-SkTorrent open Tracker, na volné zdieľanie súborov. Pridajte sa k našej komunite a získajte prístup k tisícom torrentov.

  • vysoká rýchlosť
  • úplne zdarma
  • prevažne Slovenská a Česká scéna
  • ste tu s nami už 10 rokov - Ďakujeme
  • Vitaj Guest (Login) Ako stahovat
    torrenty?
    Torrenty:
    v1 textová
    v2 obrázková
    Ako sa stat
    Uploaderom
    Online
    Filmy
    Forum
    Pravidlá
    SkTSocial
    BitTorrent
    klient
    Meno: Heslo:
    Zaregistrovat
    Po zaregistrovaní mozte volne stahovat
    Zabudol som heslo

    Ty / You (S02)(CZ/EN)(2019)(1080p-HEVC-10bit-HDR)(WEB-DL) = CSFD 78% Názov:Ty / You (S02)(CZ/EN)(2019)(1080p-HEVC-10bit-HDR)(WEB-DL) = CSFD 78% Hodnocení:N/A Stiahnut
    Pozriet Online
    Kategória:Seriál - Velikost:21.3 GB BitTorrent klient
    Pridaný: Súbory:
    Skontrolován:2023-01-19 Peerov:7 (Seed: 7, Leech: 0)
    Zaner:Drama,Krimi,Romanticky,Thriller Uploader:Uvidis, az ked budes
    VIP
    Kúp nám Pivo 1,10€

    Kúp nám Pivo

    Pridaj do zalozky
    Pridaj do zalozky





    Video: 1080p HDR 10bit HEVC MKV
    Audio: CZ/EN - 5.1 - 640kb/s
    Jazyk: CZ/EN + CZ forced




    Krimi / Drama / Romantický / Thriller
    USA, 2019, 8 h 13 min (Minutáž: 45–51 min)


    ČSFD: https://www.csfd.cz/film/610642-ty/670545-serie-2/prehled/

    Tvůrci: Greg Berlanti, Sera Gamble
    Režie: Kevin Rodney Sullivan, Silver Tree, John Scott, DeMane Davis
    Předloha: Caroline Kepnes (kniha)
    Scénář: Sera Gamble, Neil Reynolds, Justin W. Lo
    Kamera: Seamus Tierney, Cort Fey
    Hudba: Blake Neely
    Hrají: Penn Badgley, Victoria Pedretti, Ambyr Childers, Jenna Ortega, James Scully, Robin Lord Taylor, Adwin Brown, Carmela Zumbado, Marielle Scott
    Produkce: Jennifer Lence
    Střih: Gaston Jaren Lopez, Felicia Mignon Livingston, Erin Wolf
    Zvuk: Vicki Lemar, Kenneth Kobett
    Scénografie: Hugh D.G. Moody
    Kostýmy: Kiersten Hargroder

    Popis:
    Seznamte se! Tenhle neobyčejný chlapík je Will Bettelheim. Právě dorazil do LA a slíbil si, že si dá od vztahů pauzu. Jenže láska si tě prostě najde. Stejně jako vražda. (Netflix)


    Formát                                   : Matroska
    Format version                           : Version 4
    Velikost souboru                         : 3,13 GiB
    Duration                                 : 49 min 59 s
    Celkový BitRate                          : 8 970 kb/s
    Název filmu                              : YOU.S02E01.HEVC.WEB-DL.x265.10bit.HDR.Master5
    Encoded date                             : UTC 2023-01-15 21:15:12
    Použitý software                         : mkvmerge v72.0.0 ('Minuano (Six-eight)') 64-bit
    Enkódoval                                : libebml v1.4.4 + libmatroska v1.7.1

    Video #1
    ID                                       : 1
    Formát                                   : HEVC
    Formát/Info                              : High Efficiency Video Coding
    Format profile                           : Main 10@L4@Main
    HDR format                               : SMPTE ST 2086, HDR10 compatible
    Codec ID                                 : V_MPEGH/ISO/HEVC
    Duration                                 : 49 min 19 s
    Bit rate                                 : 5 450 kb/s
    Šířka                                    : 1 920pixely
    Výška                                    : 1 080pixely
    Poměr stran                              : 16:9
    Frame rate mode                          : Constant
    Frame rate                               : 23,976 (24000/1001) FPS
    Color space                              : YUV
    Chroma subsampling                       : 4:2:0 (Type 2)
    Bit depth                                : 10 bits
    Bits/(Pixel*Frame)                       : 0.110
    Stream size                              : 1,88 GiB (60%)
    Titul                                    : YOU.S02E01.HEVC.WEB-DL.x265.10bit.HDR.Master5
    Jazyk                                    : English
    Default                                  : Ano
    Forced                                   : Ne
    Color range                              : Limited
    Color primaries                          : BT.2020
    Transfer characteristics                 : PQ
    Matrix coefficients                      : BT.2020 non-constant
    Mastering display color primaries        : Display P3
    Mastering display luminance              : min: 0.0001 cd/m2, max: 1000 cd/m2
    Maximum Content Light Level              : 1146 cd/m2
    Maximum Frame-Average Light Level        : 889 cd/m2

    Video #2
    ID                                       : 2
    Formát                                   : HEVC
    Formát/Info                              : High Efficiency Video Coding
    Format profile                           : Main@L4@Main
    Codec ID                                 : V_MPEGH/ISO/HEVC
    Duration                                 : 49 min 58 s
    Bit rate                                 : 2 312 kb/s
    Šířka                                    : 1 920pixely
    Výška                                    : 1 080pixely
    Poměr stran                              : 16:9
    Frame rate mode                          : Constant
    Frame rate                               : 23,976 (24000/1001) FPS
    Color space                              : YUV
    Chroma subsampling                       : 4:2:0
    Bit depth                                : 8 bits
    Bits/(Pixel*Frame)                       : 0.047
    Stream size                              : 826 MiB (26%)
    Default                                  : Ne
    Forced                                   : Ne
    Color range                              : Limited

    Audio #1
    ID                                       : 3
    Formát                                   : E-AC-3
    Formát/Info                              : Enhanced AC-3
    Commercial name                          : Dolby Digital Plus
    Codec ID                                 : A_EAC3
    Duration                                 : 49 min 53 s
    Bit rate mode                            : Constant
    Bit rate                                 : 640 kb/s
    Kanál(y)                                 : 6 kanály
    Channel layout                           : L R C LFE Ls Rs
    Sampling rate                            : 48,0 kHz
    Frame rate                               : 31,250 FPS (1536 SPF)
    Compression mode                         : Lossy
    Stream size                              : 228 MiB (7%)
    Titul                                    : English
    Jazyk                                    : English
    Service kind                             : Complete Main
    Default                                  : Ne
    Forced                                   : Ne

    Audio #2
    ID                                       : 4
    Formát                                   : E-AC-3
    Formát/Info                              : Enhanced AC-3
    Commercial name                          : Dolby Digital Plus
    Codec ID                                 : A_EAC3
    Duration                                 : 49 min 59 s
    Bit rate mode                            : Constant
    Bit rate                                 : 640 kb/s
    Kanál(y)                                 : 6 kanály
    Channel layout                           : L R C LFE Ls Rs
    Sampling rate                            : 48,0 kHz
    Frame rate                               : 31,250 FPS (1536 SPF)
    Bit depth                                : 32 bits
    Compression mode                         : Lossy
    Stream size                              : 229 MiB (7%)
    Titul                                    : Czech
    Jazyk                                    : Czech
    Service kind                             : Complete Main
    Default                                  : Ano
    Forced                                   : Ne

    Text #1
    ID                                       : 5
    Formát                                   : UTF-8
    Codec ID                                 : S_TEXT/UTF8
    Codec ID/Info                            : UTF-8 Plain Text
    Duration                                 : 48 min 51 s
    Bit rate                                 : 74 b/s
    Frame rate                               : 0,331 FPS
    Count of elements                        : 969
    Stream size                              : 26,5 KiB (0%)
    Titul                                    : English
    Jazyk                                    : English
    Default                                  : Ne
    Forced                                   : Ne

    Text #2
    ID                                       : 6
    Formát                                   : ASS
    Codec ID                                 : S_TEXT/ASS
    Codec ID/Info                            : Advanced Sub Station Alpha
    Duration                                 : 48 min 58 s
    Bit rate                                 : 121 b/s
    Frame rate                               : 0,335 FPS
    Count of elements                        : 984
    Compression mode                         : Lossless
    Stream size                              : 43,6 KiB (0%)
    Titul                                    : Czech
    Jazyk                                    : Czech
    Default                                  : Ne
    Forced                                   : Ne

    Text #3
    ID                                       : 7
    Formát                                   : ASS
    Codec ID                                 : S_TEXT/ASS
    Codec ID/Info                            : Advanced Sub Station Alpha
    Duration                                 : 48 min 58 s
    Bit rate                                 : 1 b/s
    Frame rate                               : 0,005 FPS
    Count of elements                        : 16
    Compression mode                         : Lossless
    Stream size                              : 687 Bytes (0%)
    Titul                                    : Czech (Forced Narrative)
    Jazyk                                    : Czech
    Default                                  : Ano
    Forced                                   : Ne













    Elloit,

    + Pridaj vlastnu verziu tohto torrentu +


    Upozornenie:
    Ziadny zo zobrazených súborov sa nenachádza na tomto serveri. Server slúzi len k síreniu vlastnorucne vytvorených aplikácií, videí, hudby ai. Autori stránok nenesú ziadnu zodpovednost za zverejnené odkazy, komentáre a obsah súborov. Vsetky komentáre, odkazy, súbory ktoré by svojou povahou mohli byt v rozpore zo zákonmi sem vkladáte na vlastnú zodpovednost. Autori stránok si vyhradzujú právo cenzúry odkazov, komentárov príp. súborov, ktoré by svojou povahou mohli byt v rozpore zo zákonmi a dobrými mravmi. Dodrzujte pravidlá!


    No comments...


    Back

    Na serveru se nenalézají zádne soubory. Za odkazy jsou výhradně zodpovědní uzivatelé a návstěvníci tohoto trackeru. Administrátor není zodpovědný za pridaný obsah ani za skody zpusobené uzivateli. Nesmíte pouzívat tuto webovou stránku pro distribuovaní nebo download zádného materiálu pokud nemáte povolení od príslusného vlastníka práv. Uzivatelé jsou zodpovědní za dodrzování těchto pravidel a podmínek. Owner má právo kdykoliv změnit pravidla tohoto trackeru.

    [ Script trval: 0.080 sec. ] - [ GZIP: enabled ]
    Je zhruba 11:27
    sql

    TOPlist