Tvoj účet nieje VIP.
Preto sú tvoje funkcie a možnosti značne obmedzené.
Pre aktiváciu VIP klikni sem.

Ty / You (S03)(CZ/EN)(2021)(1080p-HDR-10bit-HEVC)(WEB-DL) = CSFD 78% | SkTorrent.eu

Cz-SkTorrent open Tracker, na volné zdieľanie súborov. Pridajte sa k našej komunite a získajte prístup k tisícom torrentov.

  • vysoká rýchlosť
  • úplne zdarma
  • prevažne Slovenská a Česká scéna
  • ste tu s nami už 10 rokov - Ďakujeme
  • Vitaj Guest (Login) Ako stahovat
    torrenty?
    Torrenty:
    v1 textová
    v2 obrázková
    Ako sa stat
    Uploaderom
    Online
    Filmy
    Forum
    Pravidlá
    SkTSocial
    BitTorrent
    klient
    Meno: Heslo:
    Zaregistrovat
    Po zaregistrovaní mozte volne stahovat
    Zabudol som heslo

    Ty / You (S03)(CZ/EN)(2021)(1080p-HDR-10bit-HEVC)(WEB-DL) = CSFD 78% Názov:Ty / You (S03)(CZ/EN)(2021)(1080p-HDR-10bit-HEVC)(WEB-DL) = CSFD 78% Hodnocení:N/A Stiahnut
    Pozriet Online
    Kategória:Seriál - Velikost:22.6 GB BitTorrent klient
    Pridaný: Súbory:
    Skontrolován:2023-01-19 Peerov:4 (Seed: 4, Leech: 0)
    Zaner:Drama,Krimi,Romanticky,Thriller Uploader:Uvidis, az ked budes
    VIP
    Kúp nám Pivo 1,10€

    Kúp nám Pivo

    Pridaj do zalozky
    Pridaj do zalozky





    Video: 1080p HDR 10bit HEVC MKV
    Audio: CZ/EN - 5.1 - 640kb/s
    Jazyk: CZ/EN + CZ forced




    Krimi / Drama / Romantický / Thriller
    USA, 2021, 8 h 13 min (Minutáž: 43–58 min)


    ČSFD: https://www.csfd.cz/film/610642-ty/970599-serie-3/prehled/

    Tvůrci: Greg Berlanti, Sera Gamble
    Režie: Silver Tree, John Scott, Pete Chatmon, Sasha Alexander
    Předloha: Caroline Kepnes (kniha)
    Scénář: Mairin Reed, Sera Gamble, Neil Reynolds, Kelli Breslin
    Kamera: Byron Shah
    Hudba: Blake Neely
    Hrají: Penn Badgley, Victoria Pedretti, Dylan Arnold, Mackenzie Astin, Shannon Chan-Kent, Saffron Burrows, Shalita Grant, Travis Van Winkle
    Produkce: Penn Badgley
    Střih: Troy Takaki, Rita K. Sanders, Piper Kroeze
    Zvuk: Kenneth Kobett, Ethan Beigel, Vicki Lemar
    Scénografie: Cynthia Charette, Jerry Fleming, Danny Cistone
    Masky: Kristina Frisch
    Kostýmy: Danielle Launzel

    Popis:
    Love a Joe se vzali, mají dítě a na prestižní adrese ve čtvrti Madre Linda se snaží žít normální život. Jenže zvyk je železná košile. (Netflix)


    Formát                                   : Matroska
    Format version                           : Version 4
    Velikost souboru                         : 2,33 GiB
    Duration                                 : 52 min 18 s
    Celkový BitRate                          : 6 376 kb/s
    Encoded date                             : UTC 2023-01-17 01:16:45
    Použitý software                         : mkvmerge v72.0.0 ('Minuano (Six-eight)') 64-bit
    Enkódoval                                : libebml v1.4.4 + libmatroska v1.7.1

    Video
    ID                                       : 1
    Formát                                   : HEVC
    Formát/Info                              : High Efficiency Video Coding
    Format profile                           : Main 10@L4@Main
    HDR format                               : SMPTE ST 2086, HDR10 compatible
    Codec ID                                 : V_MPEGH/ISO/HEVC
    Duration                                 : 50 min 39 s
    Bit rate                                 : 5 258 kb/s
    Šířka                                    : 1 920pixely
    Výška                                    : 1 080pixely
    Poměr stran                              : 16:9
    Frame rate mode                          : Constant
    Frame rate                               : 23,976 (24000/1001) FPS
    Color space                              : YUV
    Chroma subsampling                       : 4:2:0 (Type 2)
    Bit depth                                : 10 bits
    Bits/(Pixel*Frame)                       : 0.106
    Stream size                              : 1,86 GiB (80%)
    Default                                  : Ano
    Forced                                   : Ne
    Color range                              : Limited
    Color primaries                          : BT.2020
    Transfer characteristics                 : PQ
    Matrix coefficients                      : BT.2020 non-constant
    Mastering display color primaries        : Display P3
    Mastering display luminance              : min: 0.0001 cd/m2, max: 1000 cd/m2
    Maximum Content Light Level              : 1106 cd/m2
    Maximum Frame-Average Light Level        : 180 cd/m2

    Audio #1
    ID                                       : 2
    Formát                                   : E-AC-3
    Formát/Info                              : Enhanced AC-3
    Commercial name                          : Dolby Digital Plus
    Codec ID                                 : A_EAC3
    Duration                                 : 52 min 18 s
    Bit rate mode                            : Constant
    Bit rate                                 : 640 kb/s
    Kanál(y)                                 : 6 kanály
    Channel layout                           : L R C LFE Ls Rs
    Sampling rate                            : 48,0 kHz
    Frame rate                               : 31,250 FPS (1536 SPF)
    Compression mode                         : Lossy
    Stream size                              : 239 MiB (10%)
    Titul                                    : English
    Jazyk                                    : English
    Service kind                             : Complete Main
    Default                                  : Ne
    Forced                                   : Ne

    Audio #2
    ID                                       : 3
    Formát                                   : E-AC-3
    Formát/Info                              : Enhanced AC-3
    Commercial name                          : Dolby Digital Plus
    Codec ID                                 : A_EAC3
    Duration                                 : 52 min 18 s
    Bit rate mode                            : Constant
    Bit rate                                 : 640 kb/s
    Kanál(y)                                 : 6 kanály
    Channel layout                           : L R C LFE Ls Rs
    Sampling rate                            : 48,0 kHz
    Frame rate                               : 31,250 FPS (1536 SPF)
    Bit depth                                : 32 bits
    Compression mode                         : Lossy
    Stream size                              : 239 MiB (10%)
    Titul                                    : Czech
    Jazyk                                    : Czech
    Service kind                             : Complete Main
    Default                                  : Ano
    Forced                                   : Ne

    Text #1
    ID                                       : 4
    Formát                                   : UTF-8
    Codec ID                                 : S_TEXT/UTF8
    Codec ID/Info                            : UTF-8 Plain Text
    Duration                                 : 49 min 17 s
    Bit rate                                 : 77 b/s
    Frame rate                               : 0,277 FPS
    Count of elements                        : 818
    Stream size                              : 28,1 KiB (0%)
    Titul                                    : SDH
    Jazyk                                    : English
    Default                                  : Ne
    Forced                                   : Ne

    Text #2
    ID                                       : 5
    Formát                                   : ASS
    Codec ID                                 : S_TEXT/ASS
    Codec ID/Info                            : Advanced Sub Station Alpha
    Duration                                 : 50 min 23 s
    Bit rate                                 : 116 b/s
    Frame rate                               : 0,255 FPS
    Count of elements                        : 772
    Compression mode                         : Lossless
    Stream size                              : 43,1 KiB (0%)
    Titul                                    : Czech
    Jazyk                                    : Czech
    Default                                  : Ne
    Forced                                   : Ne

    Text #3
    ID                                       : 6
    Formát                                   : ASS
    Codec ID                                 : S_TEXT/ASS
    Codec ID/Info                            : Advanced Sub Station Alpha
    Duration                                 : 50 min 23 s
    Bit rate                                 : 1 b/s
    Frame rate                               : 0,003 FPS
    Count of elements                        : 10
    Compression mode                         : Lossless
    Stream size                              : 451 Bytes (0%)
    Titul                                    : Czech (Forced Narrative)
    Jazyk                                    : Czech
    Default                                  : Ano
    Forced                                   : Ne













    fffeero,

    + Pridaj vlastnu verziu tohto torrentu +


    Upozornenie:
    Ziadny zo zobrazených súborov sa nenachádza na tomto serveri. Server slúzi len k síreniu vlastnorucne vytvorených aplikácií, videí, hudby ai. Autori stránok nenesú ziadnu zodpovednost za zverejnené odkazy, komentáre a obsah súborov. Vsetky komentáre, odkazy, súbory ktoré by svojou povahou mohli byt v rozpore zo zákonmi sem vkladáte na vlastnú zodpovednost. Autori stránok si vyhradzujú právo cenzúry odkazov, komentárov príp. súborov, ktoré by svojou povahou mohli byt v rozpore zo zákonmi a dobrými mravmi. Dodrzujte pravidlá!


    No comments...


    Back

    Na serveru se nenalézají zádne soubory. Za odkazy jsou výhradně zodpovědní uzivatelé a návstěvníci tohoto trackeru. Administrátor není zodpovědný za pridaný obsah ani za skody zpusobené uzivateli. Nesmíte pouzívat tuto webovou stránku pro distribuovaní nebo download zádného materiálu pokud nemáte povolení od príslusného vlastníka práv. Uzivatelé jsou zodpovědní za dodrzování těchto pravidel a podmínek. Owner má právo kdykoliv změnit pravidla tohoto trackeru.

    [ Script trval: 0.108 sec. ] - [ GZIP: enabled ]
    Je zhruba 10:47
    memcache

    TOPlist