Tvoj účet nieje VIP.
Preto sú tvoje funkcie a možnosti značne obmedzené.
Pre aktiváciu VIP klikni sem.

Unikova hra / Escape Room (2019)(CZ/EN)(2160p 4K BRRip) = CSFD 63% | SkTorrent.eu

Cz-SkTorrent open Tracker, na volné zdielanie súborov. Pridajte sa k nasej komunite a získajte pristup k tisícom torrentov.

  • vysoká rýchlost
  • úplne zdarma
  • prevazne Slovenska a Ceska scena
  • ste tu s nami uz 5 rokov - Dakujeme
  • Vitaj Guest (Login) Ako stahovat
    torrenty?
    Torrenty:
    v1 textová
    v2 obrázková
    v3 online filmy
    Ako sa stat
    Uploaderom
    Online
    Filmy
    Forum
    Pravidlá
    BitTorrent
    klient
    Meno: Heslo:
    Zaregistrovat
    Po zaregistrovaní mozte volne stahovat
    Zabudol som heslo

    Torrent's details
    Unikova hra / Escape Room (2019)(CZ/EN)(2160p 4K BRRip) = CSFD 63% Názov:Unikova hra / Escape Room (2019)(CZ/EN)(2160p 4K BRRip) = CSFD 63% Hodnocení: Stiahnut
    Pozriet Online
    Kategória:UHD Filmy Velikost:54.4 GB BitTorrent klient
    Pridaný: Súbory:
    Skontrolován:2021-07-22 Peerov:11 (Seed: 11, Leech: 0)
    Zaner:Drama,Mysteriozni,Sci-Fi,Thriller Uploader:Uvidis, az ked budes
    VIP
    Kúp nám Pivo 1,10€

    Kúp nám Pivo
    Podporte nas na Facebooku !
    Pridaj do zalozky
    Pridaj do zalozky






    Unikova hra / Escape Room
    (2019)(CZ/EN) = CSFD 63%

    2160p 4K HDR10 - HEVC – 78.2 Mb/s Bitrate verzia


    ... Na zelanie ...






    Video: 2160p 4K HDR10 - HEVC
    Jazyk: CZ 5.1 DD 640 Kbs/ CZ 5.1 DD 448 Kbs / EN 5.1 DTS-HD / EN 5.1 DTS / EN 5.1 DD
    Titulky: CZ Full + Forced / SK / EN
    Drama / Thriller / Myteriozni / Sci-Fi
    USA 2019
    99 min

    Režie: Adam Robitel
    Scénář: Bragi F. Schut, Maria Melnik
    Kamera: Marc Spicer
    Hudba: Brian Tyler, John Carey
    Hrají: Taylor Russell, Logan Miller, Jay Ellis, Tyler Labine, Deborah Ann Woll, Nik Dodani, Yorick van Wageningen, Jessica Sutton, Kenneth Fok, Jamie-Lee Money, Adam Robitel, Inge Beckmann, Álex Martínez, Gary Green

    OBSAH

    Psychologický thriller Úniková hra vypráví příběh šesti lidí, kteří přijali výzvu zúčastnit se únikové hry. Velmi brzy ale zjistí, že ze hry cesta ven neexistuje… a začíná boj o přežití.

    SCREEN


    TRAILER






    Hlavní
    Formát : Matroska
    Format version : Version 4
    Velikost souboru : 54,0 GiB
    Duration : 1 h 39 min
    Overall bit rate mode : Variable
    Celkový BitRate : 77,6 Mb/s
    Encoded date : UTC 2021-07-20 06:49:40
    Použitý software : mkvmerge v31.0.0 ('Dolores In A Shoestand') 64-bit
    Enkódoval : libebml v1.3.6 + libmatroska v1.4.9
    Obal : Yes
    Attachments : small_cover.jpg / small_cover_land.jpg / cover.jpg / cover_land.jpg

    Video
    ID : 1
    Formát : HEVC
    Formát/Info : High Efficiency Video Coding
    Format profile : Main 10@L5.2@High
    HDR format : SMPTE ST 2086, HDR10 compatible
    Codec ID : V_MPEGH/ISO/HEVC
    Duration : 1 h 39 min
    Bit rate : 73,5 Mb/s
    Šířka : 3 840pixely
    Výška : 2 160pixely
    Poměr stran : 16:9
    Frame rate mode : Constant
    Frame rate : 23,976 (24000/1001) FPS
    Color space : YUV
    Chroma subsampling : 4:2:0 (Type 2)
    Bit depth : 10 bits
    Bits/(Pixel*Frame) : 0.370
    Stream size : 51,1 GiB (95%)
    Jazyk : English
    Default : Ano
    Forced : Ne
    Color range : Limited
    Color primaries : BT.2020
    Transfer characteristics : PQ
    Matrix coefficients : BT.2020 non-constant
    Mastering display color primaries : Display P3
    Mastering display luminance : min: 0.0050 cd/m2, max: 4000 cd/m2
    Maximum Content Light Level : 3876 cd/m2
    Maximum Frame-Average Light Level : 852 cd/m2

    Audio #1
    ID : 2
    Formát : DTS XLL
    Formát/Info : Digital Theater Systems
    Commercial name : DTS-HD Master Audio
    Codec ID : A_DTS
    Duration : 1 h 39 min
    Bit rate mode : Variable
    Bit rate : 2 247 kb/s
    Kanál(y) : 6 kanály
    Channel layout : C L R Ls Rs LFE
    Sampling rate : 48,0 kHz
    Frame rate : 93,750 FPS (512 SPF)
    Bit depth : 16 bits
    Compression mode : Lossless
    Video delay : 10 ms
    Stream size : 1,56 GiB (3%)
    Jazyk : English
    Default : Ano
    Forced : Ne

    Audio #2
    ID : 3
    Formát : DTS
    Formát/Info : Digital Theater Systems
    Codec ID : A_DTS
    Duration : 1 h 39 min
    Bit rate mode : Constant
    Bit rate : 768 kb/s
    Kanál(y) : 6 kanály
    Channel layout : C L R Ls Rs LFE
    Sampling rate : 48,0 kHz
    Frame rate : 93,750 FPS (512 SPF)
    Bit depth : 24 bits
    Compression mode : Lossy
    Stream size : 547 MiB (1%)
    Jazyk : English
    Default : Ne
    Forced : Ne

    Audio #3
    ID : 4
    Formát : AC-3
    Formát/Info : Audio Coding 3
    Commercial name : Dolby Digital
    Codec ID : A_AC3
    Duration : 1 h 39 min
    Bit rate mode : Constant
    Bit rate : 640 kb/s
    Kanál(y) : 6 kanály
    Channel layout : L R C LFE Ls Rs
    Sampling rate : 48,0 kHz
    Frame rate : 31,250 FPS (1536 SPF)
    Compression mode : Lossy
    Stream size : 456 MiB (1%)
    Jazyk : English
    Service kind : Complete Main
    Default : Ne
    Forced : Ne

    Audio #4
    ID : 6
    Formát : AC-3
    Formát/Info : Audio Coding 3
    Commercial name : Dolby Digital
    Codec ID : A_AC3
    Duration : 1 h 39 min
    Bit rate mode : Constant
    Bit rate : 448 kb/s
    Kanál(y) : 6 kanály
    Channel layout : L R C LFE Ls Rs
    Sampling rate : 48,0 kHz
    Frame rate : 31,250 FPS (1536 SPF)
    Compression mode : Lossy
    Video delay : 28 ms
    Stream size : 319 MiB (1%)
    Jazyk : Czech
    Service kind : Complete Main
    Default : Ne
    Forced : Ne

    Audio #5
    ID : 10
    Formát : AC-3
    Formát/Info : Audio Coding 3
    Commercial name : Dolby Digital
    Codec ID : A_AC3
    Duration : 1 h 39 min
    Bit rate mode : Constant
    Bit rate : 640 kb/s
    Kanál(y) : 6 kanály
    Channel layout : L R C LFE Ls Rs
    Sampling rate : 48,0 kHz
    Frame rate : 31,250 FPS (1536 SPF)
    Compression mode : Lossy
    Video delay : 24 ms
    Stream size : 456 MiB (1%)
    Jazyk : Czech
    Service kind : Complete Main
    Default : Ano
    Forced : Ano

    Text #1
    ID : 5
    Formát : UTF-8
    Codec ID : S_TEXT/UTF8
    Codec ID/Info : UTF-8 Plain Text
    Duration : 1 h 33 min
    Bit rate : 70 b/s
    Count of elements : 1359
    Stream size : 48,1 KiB (0%)
    Jazyk : English
    Default : Ne
    Forced : Ne

    Text #2
    ID : 7
    Formát : UTF-8
    Codec ID : S_TEXT/UTF8
    Codec ID/Info : UTF-8 Plain Text
    Duration : 1 h 34 min
    Bit rate : 59 b/s
    Count of elements : 1340
    Stream size : 40,7 KiB (0%)
    Jazyk : Czech
    Default : Ne
    Forced : Ne

    Text #3
    ID : 8
    Formát : UTF-8
    Codec ID : S_TEXT/UTF8
    Codec ID/Info : UTF-8 Plain Text
    Duration : 1 h 34 min
    Bit rate : 52 b/s
    Count of elements : 1338
    Stream size : 36,2 KiB (0%)
    Jazyk : Slovak
    Default : Ne
    Forced : Ne

    Text #4
    ID : 9
    Formát : UTF-8
    Codec ID : S_TEXT/UTF8
    Codec ID/Info : UTF-8 Plain Text
    Duration : 1 h 34 min
    Bit rate : 0 b/s
    Count of elements : 2
    Stream size : 72,0 Bytes (0%)
    Jazyk : Czech
    Default : Ano
    Forced : Ano

    Menu #1
    00:00:00.000 : 00:00:00.000
    00:04:36.026 : 00:04:36.026
    00:09:25.648 : 00:09:25.648
    00:14:08.765 : 00:14:08.765
    00:19:46.102 : 00:19:46.102
    00:25:55.220 : 00:25:55.220
    00:33:08.945 : 00:33:08.945
    00:37:27.162 : 00:37:27.162
    00:43:05.082 : 00:43:05.082
    00:50:06.170 : 00:50:06.170
    00:53:58.569 : 00:53:58.569
    01:03:15.291 : 01:03:15.291
    01:09:07.894 : 01:09:07.894
    01:16:14.695 : 01:16:14.695
    01:22:48.755 : 01:22:48.755
    01:30:27.881 : 01:30:27.881

    Menu #2
    00:00:00.000 : :Chapter 1
    00:04:36.026 : :Chapter 2
    00:09:25.648 : :Chapter 3
    00:14:08.765 : :Chapter 4
    00:19:46.118 : :Chapter 5
    00:25:55.237 : :Chapter 6
    00:33:09.004 : :Chapter 7
    00:37:27.162 : :Chapter 8
    00:43:05.083 : :Chapter 9
    00:50:06.170 : :Chapter 10
    00:53:58.569 : :Chapter 11
    01:03:15.292 : :Chapter 12
    01:09:07.894 : :Chapter 13
    01:16:14.754 : :Chapter 14
    01:22:48.797 : :Chapter 15
    01:30:27.923 : :Chapter 16







    VDAKA ZA BODY a SEEDUJTE






    ONLINE

    CZ dabing






    SK titulky









    Lucifeeer.666, MiBstarsk, pepa49, matrix0007, matkowic, Qatrox, paulusek,

    + Pridaj vlastnu verziu tohto torrentu +


    Upozornenie:
    Ziadny zo zobrazených súborov sa nenachádza na tomto serveri. Server slúzi len k síreniu vlastnorucne vytvorených aplikácií, videí, hudby ai. Autori stránok nenesú ziadnu zodpovednost za zverejnené odkazy, komentáre a obsah súborov. Vsetky komentáre, odkazy, súbory ktoré by svojou povahou mohli byt v rozpore zo zákonmi sem vkladáte na vlastnú zodpovednost. Autori stránok si vyhradzujú právo cenzúry odkazov, komentárov príp. súborov, ktoré by svojou povahou mohli byt v rozpore zo zákonmi a dobrými mravmi. Dodrzujte pravidlá!





    0
    Filmy4k
    Ratio 8.77

    Member+

    10/09/2021 20.57.55
    Ahoj, poprosil bych seed. Díky


    Back

    Na serveru se nenalézají zádne soubory. Za odkazy jsou výhradně zodpovědní uzivatelé a návstěvníci tohoto trackeru. Administrátor není zodpovědný za pridaný obsah ani za skody zpusobené uzivateli. Rozsirovat stránku nebo její obsah bez souhlasu ownera je zakázano. Nesmíte pouzívat tuto webovou stránku pro distribuovaní nebo download zádného materiálu pokud nemáte povolení od príslusného vlastníka práv. Uzivatelé jsou zodpovědní za dodrzování těchto pravidel a podmínek. Owner má právo kdykoliv změnit pravidla tohoto trackeru.

    [ Script trval: 0.021 sec. ] - [ GZIP: enabled ]
    Je zhruba 15:04

    TOPlist