Tvoj účet nieje VIP.
Preto sú tvoje funkcie a možnosti značne obmedzené.
Pre aktiváciu VIP klikni sem.

Vřískot 6 / Scream VI (2023)(CZ/EN)(WEB-DL)(1080p) = CSFD 62% | SkTorrent.eu

Cz-SkTorrent open Tracker, na volné zdieľanie súborov. Pridajte sa k našej komunite a získajte prístup k tisícom torrentov.

  • vysoká rýchlosť
  • úplne zdarma
  • prevažne Slovenská a Česká scéna
  • ste tu s nami už 10 rokov - Ďakujeme
  • Vitaj Guest (Login) Ako stahovat
    torrenty?
    Torrenty:
    v1 textová
    v2 obrázková
    Ako sa stat
    Uploaderom
    Online
    Filmy
    Forum
    Pravidlá
    SkTSocial
    BitTorrent
    klient
    Meno: Heslo:
    Zaregistrovat
    Po zaregistrovaní mozte volne stahovat
    Zabudol som heslo

    Vřískot 6 / Scream VI (2023)(CZ/EN)(WEB-DL)(1080p) = CSFD 62% Názov:Vřískot 6 / Scream VI (2023)(CZ/EN)(WEB-DL)(1080p) = CSFD 62% Hodnocení: Stiahnut
    Pozriet Online
    Kategória:HD Filmy - Velikost:6.9 GB BitTorrent klient
    Pridaný: Súbory:
    Skontrolován:2024-07-08 Peerov:15 (Seed: 15, Leech: 0)
    Zaner:Horor,Thriller Uploader:Uvidis, az ked budes
    VIP
    Kúp nám Pivo 1,10€

    Kúp nám Pivo

    Pridaj do zalozky
    Pridaj do zalozky






    Jazyk : CZ/EN

    Titulky : CZ/EN/SK

    Horor / Thriller
    USA, 2023, 123 min



    Režie: Matt Bettinelli-Olpin, Tyler Gillett

    Scénář: James Vanderbilt, Guy Busick

    Kamera: Brett Jutkiewicz

    Hudba: Brian Tyler

    Hrají: Melissa Barrera, Jenna Ortega, Courteney Cox, Mason Gooding, Jasmin Savoy Brown, Hayden Panettiere, Dermot Mulroney, Samara Weaving, Tony Revolori (více)

    Produkce: Paul Neinstein, William Sherak, James Vanderbilt

    Střih: Jay Prychidny

    Zvuk: Oleg Kulchytskyi, Greg P. Russell

    Scénografie: Michele Laliberte, Vincent Aird

    Masky: Kathy Kelso

    Kostýmy: Avery Plewes

    Obsah:

    Sestry Samantha a Tara Carpenterové a dvojčata Chad a Mindy přežily řádění tajemného vraha ukrytého pod maskou ducha v městečku Woodsboro. Ve snaze zapomenout na tyto tragické události se všichni čtyři přestěhují do New Yorku, aby tam začali nový život. Netrvá to ale dlouho a objeví se nový a ještě brutálnější vrah v masce Ghostface a jejich životy jsou opět v ohrožení. (Forum Film CZ)


    Format                      : Matroska
    Format version              : Version 4
    File size                   : 6.86 GiB
    Duration                    : 2 h 2 min
    Overall bit rate            : 8 009 kb/s
    Movie name                  : Vřískot 6
    Description                 : Když se čtyři přeživší z Woodsboro přestěhují do New Yorku, aby začali nanovo, zavolá jim nechvalně známý zabiják s maskou ducha zvaný Ghostface, který se nezastaví, dokud je všechny neuloví.
    Encoded date                : UTC 2024-07-08 19:04:42
    Writing application         : mkvmerge v68.0.0 ('The Curtain') 64-bit
    Writing library             : libebml v1.4.2 + libmatroska v1.6.4
    Cover                       : Yes
    Attachments                 : cover.png

    Video
    ID                          : 1
    Format                      : AVC
    Format/Info                 : Advanced Video Codec
    Format profile              : High@L4
    Format settings             : CABAC / 3 Ref Frames
    Format settings, CABAC      : Yes
    Format settings, Reference  : 3 frames
    Codec ID                    : V_MPEG4/ISO/AVC
    Duration                    : 2 h 2 min
    Bit rate                    : 7 830 kb/s
    Width                       : 1 920 pixels
    Height                      : 1 080 pixels
    Display aspect ratio        : 16:9
    Frame rate mode             : Constant
    Frame rate                  : 23.976 (24000/1001) FPS
    Color space                 : YUV
    Chroma subsampling          : 4:2:0
    Bit depth                   : 8 bits
    Scan type                   : Progressive
    Bits/(Pixel*Frame)          : 0.157
    Stream size                 : 6.68 GiB (97%)
    Writing library             : x264 core 148 r236 a01e339
    Encoding settings           : cabac=1 / ref=3 / deblock=1:0:0 / analyse=0x3:0x113 / me=umh / subme=7 / psy=1 / psy_rd=0.00:0.00 / mixed_ref=1 / me_range=16 / chroma_me=1 / trellis=1 / 8x8dct=1 / cqm=0 / deadzone=21,11 / fast_pskip=1 / chroma_qp_offset=0 / threads=34 / lookahead_threads=5 / sliced_threads=0 / nr=0 / decimate=1 / interlaced=0 / bluray_compat=0 / constrained_intra=0 / bframes=2 / b_pyramid=0 / b_adapt=1 / b_bias=0 / direct=1 / weightb=1 / open_gop=0 / weightp=2 / keyint=48 / keyint_min=4 / scenecut=0 / intra_refresh=0 / rc_lookahead=48 / rc=2pass / mbtree=1 / bitrate=7830 / ratetol=1.0 / qcomp=0.60 / qpmin=10 / qpmax=51 / qpstep=4 / cplxblur=20.0 / qblur=0.5 / vbv_maxrate=11745 / vbv_bufsize=11745 / nal_hrd=none / filler=0 / ip_ratio=1.41 / aq=1:1.00
    Default                     : Yes
    Forced                      : No
    Color range                 : Limited
    Color primaries             : BT.709
    Transfer characteristics    : BT.709
    Matrix coefficients         : BT.709

    Audio #1
    ID                          : 2
    Format                      : E-AC-3
    Format/Info                 : Enhanced AC-3
    Commercial name             : Dolby Digital Plus
    Format settings             : Dolby Surround
    Codec ID                    : A_EAC3
    Duration                    : 2 h 2 min
    Bit rate mode               : Constant
    Bit rate                    : 96.0 kb/s
    Channel(s)                  : 2 channels
    Channel layout              : L R
    Sampling rate               : 48.0 kHz
    Frame rate                  : 31.250 FPS (1536 SPF)
    Compression mode            : Lossy
    Stream size                 : 84.2 MiB (1%)
    Language                    : Czech
    Service kind                : Complete Main
    Default                     : No
    Forced                      : No

    Audio #2
    ID                          : 3
    Format                      : E-AC-3
    Format/Info                 : Enhanced AC-3
    Commercial name             : Dolby Digital Plus
    Format settings             : Dolby Surround
    Codec ID                    : A_EAC3
    Duration                    : 2 h 2 min
    Bit rate mode               : Constant
    Bit rate                    : 96.0 kb/s
    Channel(s)                  : 2 channels
    Channel layout              : L R
    Sampling rate               : 48.0 kHz
    Frame rate                  : 31.250 FPS (1536 SPF)
    Compression mode            : Lossy
    Stream size                 : 84.2 MiB (1%)
    Language                    : English
    Service kind                : Complete Main
    Default                     : No
    Forced                      : No

    Text #1
    ID                          : 4
    Format                      : UTF-8
    Codec ID                    : S_TEXT/UTF8
    Codec ID/Info               : UTF-8 Plain Text
    Duration                    : 2 h 1 min
    Bit rate                    : 55 b/s
    Frame rate                  : 0.231 FPS
    Count of elements           : 1686
    Stream size                 : 49.7 KiB (0%)
    Language                    : Czech
    Default                     : Yes
    Forced                      : No

    Text #2
    ID                          : 5
    Format                      : UTF-8
    Codec ID                    : S_TEXT/UTF8
    Codec ID/Info               : UTF-8 Plain Text
    Duration                    : 2 h 1 min
    Bit rate                    : 93 b/s
    Frame rate                  : 0.336 FPS
    Count of elements           : 2457
    Stream size                 : 83.5 KiB (0%)
    Language                    : English
    Default                     : Yes
    Forced                      : No

    Text #3
    ID                          : 6
    Format                      : UTF-8
    Codec ID                    : S_TEXT/UTF8
    Codec ID/Info               : UTF-8 Plain Text
    Duration                    : 2 h 1 min
    Bit rate                    : 56 b/s
    Frame rate                  : 0.246 FPS
    Count of elements           : 1797
    Stream size                 : 50.1 KiB (0%)
    Language                    : Slovak
    Default                     : Yes
    Forced                      : No








    Filmy CZ/SK titulky









    maysa33, barryx, Moonwalkers1990, mimu, Mory1, YPetr, Alessa, frantisekQ, andre66,

    + Pridaj vlastnu verziu tohto torrentu +


    Upozornenie:
    Ziadny zo zobrazených súborov sa nenachádza na tomto serveri. Server slúzi len k síreniu vlastnorucne vytvorených aplikácií, videí, hudby ai. Autori stránok nenesú ziadnu zodpovednost za zverejnené odkazy, komentáre a obsah súborov. Vsetky komentáre, odkazy, súbory ktoré by svojou povahou mohli byt v rozpore zo zákonmi sem vkladáte na vlastnú zodpovednost. Autori stránok si vyhradzujú právo cenzúry odkazov, komentárov príp. súborov, ktoré by svojou povahou mohli byt v rozpore zo zákonmi a dobrými mravmi. Dodrzujte pravidlá!


    No comments...


    Back

    Na serveru se nenalézají zádne soubory. Za odkazy jsou výhradně zodpovědní uzivatelé a návstěvníci tohoto trackeru. Administrátor není zodpovědný za pridaný obsah ani za skody zpusobené uzivateli. Nesmíte pouzívat tuto webovou stránku pro distribuovaní nebo download zádného materiálu pokud nemáte povolení od príslusného vlastníka práv. Uzivatelé jsou zodpovědní za dodrzování těchto pravidel a podmínek. Owner má právo kdykoliv změnit pravidla tohoto trackeru.

    [ Script trval: 0.067 sec. ] - [ GZIP: enabled ]
    Je zhruba 05:04
    sql

    TOPlist