Tvoj účet nieje VIP.
Preto sú tvoje funkcie a možnosti značne obmedzené.
Pre aktiváciu VIP klikni sem.

V roli kaskadera / The Stunt Man (1980)(HD)(720p)(x264)(EN-CZ) = CSFD 67% | SkTorrent.eu

Cz-SkTorrent open Tracker, na volné zdielanie súborov. Pridajte sa k nasej komunite a získajte pristup k tisícom torrentov.

  • vysoká rýchlost
  • úplne zdarma
  • prevazne Slovenska a Ceska scena
  • ste tu s nami uz 5 rokov - Dakujeme
  • Vitaj Guest (Login) Ako stahovat
    torrenty?
    Torrenty:
    v1 textová
    v2 obrázková
    v3 online filmy
    Ako sa stat
    Uploaderom
    Online
    Filmy
    Forum
    Pravidlá
    BitTorrent
    klient
    Meno: Heslo:
    Zaregistrovat
    Po zaregistrovaní mozte volne stahovat
    Zabudol som heslo

    Torrent's details
    V roli kaskadera / The Stunt Man (1980)(HD)(720p)(x264)(EN-CZ) = CSFD 67% Názov:V roli kaskadera / The Stunt Man (1980)(HD)(720p)(x264)(EN-CZ) = CSFD 67% Hodnocení:N/A Stiahnut
    Pozriet Online
    Kategória:Filmy CZ/SK dabing Velikost:2.6 GB BitTorrent klient
    Pridaný: Súbory:
    Skontrolován:2022-06-28 Peerov:10 (Seed: 10, Leech: 0)
    Zaner:Akcni,Komedie,Romanticky,Thriller Uploader:Uvidis, az ked budes
    VIP
    Kúp nám Pivo 1,10€

    Kúp nám Pivo
    Podporte nas na Facebooku !
    Pridaj do zalozky
    Pridaj do zalozky






    [center]






    Movie Name: The Stunt Man (1980)
    IMDb Rating: 7.0/10

    Quality: 720p (Webrip/DVDrip)
    Language: English (AAC 2.0) Czech (AAC 2.0)
    Subtitles: -
    Director: Richard Rush
    Writers: Lawrence B. Marcus (screenplay) Richard Rush (adaptation) Paul Brodeur (novel)
    Genres: Action | Comedy | Drama |


    A fugitive stumbles onto a movie set just when they need a new stunt man, takes the job as a way to hide out and falls for the leading lady while facing off with his manipulative director.
    ***
    Válečného veterána z Vietnamu hledá policie. Uprchlík se nakonec schová ve filmovém štábu, kde potřebují kaskadéra, jelikož jim předchozí při nehodě umřel. Zvládne bývalý voják tuto náročnou roli?
    Cameron je bývalý voják a skrývá se před policií. Jednoho dne se ocitne u natáčení filmu v mořském letovisku a megalomanický režisér Eli Cross ho přinutí, aby pro něj pracoval jako kaskadér, kvůli nahrazení kaskadéra, který se utopil při natáčení nebezpečného akrobatického kousku. Protože se Cameron potřebuje úkryt, práci přijímá a zamiluje se do herečky Niny Franklin. Poznenáhlu však začne mít obavy, že Eli pro něj zamýšlí stejný konec jako pro jeho předchůdce...






    [/center]

    Format                                   : Matroska
    Format version                           : Version 4
    File size                                : 2.64 GiB
    Duration                                 : 2 h 5 min
    Overall bit rate                         : 3 017 kb/s
    Movie name                               : The Stunt Man (1980)(HD)(720p)(x264)(EN-CZ) PHDTeam
    Encoded date                             : UTC 2022-06-12 18:41:13
    Writing application                      : mkvmerge v68.0.0 ('The Curtain') 64-bit
    Writing library                          : libebml v1.4.2 + libmatroska v1.6.4 / Lavf58.44.100

    Video
    ID                                       : 1
    Format                                   : AVC
    Format/Info                              : Advanced Video Codec
    Format profile                           : Main@L4.2
    Format settings                          : CABAC / 1 Ref Frames
    Format settings, CABAC                   : Yes
    Format settings, Reference frames        : 1 frame
    Format settings, GOP                     : M=1, N=30
    Codec ID                                 : V_MPEG4/ISO/AVC
    Duration                                 : 2 h 5 min
    Bit rate                                 : 2 748 kb/s
    Width                                    : 1 280 pixels
    Height                                   : 720 pixels
    Display aspect ratio                     : 16:9
    Frame rate mode                          : Constant
    Frame rate                               : 30.000 FPS
    Standard                                 : Component
    Color space                              : YUV
    Chroma subsampling                       : 4:2:0
    Bit depth                                : 8 bits
    Scan type                                : Progressive
    Bits/(Pixel*Frame)                       : 0.099
    Stream size                              : 2.40 GiB (91%)
    Title                                    : The Stunt Man (1980)(HD)(720p)(x264)(EN-CZ) PHDTeam
    Default                                  : Yes
    Forced                                   : No
    Color range                              : Full
    colour_range_Original                    : Limited

    Audio #1
    ID                                       : 2
    Format                                   : AAC LC
    Format/Info                              : Advanced Audio Codec Low Complexity
    Codec ID                                 : A_AAC-2
    Duration                                 : 2 h 5 min
    Bit rate                                 : 128 kb/s
    Channel(s)                               : 2 channels
    Channel layout                           : L R
    Sampling rate                            : 44.1 kHz
    Frame rate                               : 43.066 FPS (1024 SPF)
    Compression mode                         : Lossy
    Delay relative to video                  : -46 ms
    Stream size                              : 115 MiB (4%)
    Language                                 : Czech
    Default                                  : Yes
    Forced                                   : No

    Audio #2
    ID                                       : 3
    Format                                   : AAC LC
    Format/Info                              : Advanced Audio Codec Low Complexity
    Codec ID                                 : A_AAC-2
    Duration                                 : 2 h 5 min
    Bit rate                                 : 128 kb/s
    Channel(s)                               : 2 channels
    Channel layout                           : L R
    Sampling rate                            : 44.1 kHz
    Frame rate                               : 43.066 FPS (1024 SPF)
    Compression mode                         : Lossy
    Delay relative to video                  : -46 ms
    Stream size                              : 115 MiB (4%)
    Language                                 : English
    Default                                  : No
    Forced                                   : No











    sa58, unknownbob, Jablonka, flying, gooka58, kandurAlex,

    + Pridaj vlastnu verziu tohto torrentu +


    Upozornenie:
    Ziadny zo zobrazených súborov sa nenachádza na tomto serveri. Server slúzi len k síreniu vlastnorucne vytvorených aplikácií, videí, hudby ai. Autori stránok nenesú ziadnu zodpovednost za zverejnené odkazy, komentáre a obsah súborov. Vsetky komentáre, odkazy, súbory ktoré by svojou povahou mohli byt v rozpore zo zákonmi sem vkladáte na vlastnú zodpovednost. Autori stránok si vyhradzujú právo cenzúry odkazov, komentárov príp. súborov, ktoré by svojou povahou mohli byt v rozpore zo zákonmi a dobrými mravmi. Dodrzujte pravidlá!


    No comments...


    Back

    Na serveru se nenalézají zádne soubory. Za odkazy jsou výhradně zodpovědní uzivatelé a návstěvníci tohoto trackeru. Administrátor není zodpovědný za pridaný obsah ani za skody zpusobené uzivateli. Rozsirovat stránku nebo její obsah bez souhlasu ownera je zakázano. Nesmíte pouzívat tuto webovou stránku pro distribuovaní nebo download zádného materiálu pokud nemáte povolení od príslusného vlastníka práv. Uzivatelé jsou zodpovědní za dodrzování těchto pravidel a podmínek. Owner má právo kdykoliv změnit pravidla tohoto trackeru.

    [ Script trval: 0.025 sec. ] - [ GZIP: enabled ]
    Je zhruba 03:12
    sql

    TOPlist