Tvoj účet nieje VIP.
Preto sú tvoje funkcie a možnosti značne obmedzené.
Pre aktiváciu VIP klikni sem.

Vanocni zlo / You Better Watch Out (1980)(CZ) = CSFD 32% | SkTorrent.eu

Cz-SkTorrent open Tracker, na volné zdielanie súborov. Pridajte sa k nasej komunite a získajte pristup k tisícom torrentov.

  • vysoká rýchlost
  • úplne zdarma
  • prevazne Slovenska a Ceska scena
  • ste tu s nami uz 5 rokov - Dakujeme
  • Vitaj Guest (Login) Ako stahovat
    torrenty?
    Torrenty:
    v1 textová
    v2 obrázková
    v3 online filmy
    Ako sa stat
    Uploaderom
    Online
    Filmy
    Forum
    Pravidlá
    BitTorrent
    klient
    pruzinky
    Meno: Heslo:
    Zaregistrovat
    Po zaregistrovaní mozte volne stahovat
    Zabudol som heslo

    Torrent's details
    Vanocni zlo / You Better Watch Out (1980)(CZ) = CSFD 32% Názov:Vanocni zlo / You Better Watch Out (1980)(CZ) = CSFD 32% Hodnocení: Stiahnut
    Pozriet Online
    Kategória:Filmy CZ/SK dabing Velikost:1.3 GB BitTorrent klient
    Pridaný: Súbory:
    Skontrolován:2019-08-24 Peerov:2 (Seed: 2, Leech: 0)
    Zaner:Horor,Thriller Uploader:Uvidis, az ked budes
    VIP
    Kúp nám Pivo 1,10€

    Kúp nám Pivo
    Podporte nas na Facebooku !
    Pridaj do zalozky
    Pridaj do zalozky




     



         Vánoční zlo
             
                  (další názvy)

         You Better Watch Out
     
        Christmas Evil
     
        Vianočné zlo
     
         Christmas Evil

    Horor / Thriller

    USA, 1980, 100 min
    Režie: Lewis Jackson
    Scénář: Lewis Jackson
    Kamera: Ricardo Aronovich
    Hudba: Joel Harris, Julia Heyward
    Hrají: Brandon Maggart, Jeffrey DeMunn, Dianne Hull, Andy Fenwick, Brian Neville, Patricia Richardson, Mark Margolis, Raymond J. Barry, Michael Gordon, Philip Casnoff, Bill Raymond, Rutanya Alda, Peter Friedman, Sam Gray, Audrey Matson, Ellen McElduff, Robert Lesser, Stephen Mendillo, Burt Kleiner, Will MacMillan, Lance Holcomb, Leib Lensky
    Producenti: Pete Kameron, Burt Kleiner
    Střih: Linda Leeds, Corky O'Hara
    Scénografie: Lorenzo Mans
    Kostýmy: Deirdre N. Williams





    https://www.csfd.cz/film/31818-vanocni-zlo/komentare/






     Bílé vousy a červený kabát? Drž se od něj dál! Milý Santo! Nevím, jak začít. Vždy jsem Tě měl moc rád a těšil se na Tvou návštěvu. Ale když jsem tě tehdy v noci viděl, jak svlékáš a saháš na maminku, byl jsem moc smutný. Proč jsi mi to udělal? Jsi špatný Santa Claus! Ale teď už jsem dospělý a JÁ teď budu rozdávat dárečky a trestat zlobivé dětičky a zlé lidi. Mám jich dlouhatánský seznam a všichni dostanou co si zaslouží. Protože JÁ jsem teď ten jediný a pravý Santa. A já jim všem ukážu!(oficiální text distributora)


    -DVDRip-Cz-1980.avi
    Format                           : AVI
    Format/Info                      : Audio Video Interleave
    Format profile                   : OpenDML
    File size                        : 1.34 GiB
    Duration                         : 1h 31mn
    Overall bit rate                 : 2 101 Kbps

    Video
    ID                               : 0
    Format                           : MPEG-4 Visual
    Format profile                   : Simple@L3
    Format settings, BVOP            : No
    Format settings, QPel            : No
    Format settings, GMC             : No warppoints
    Format settings, Matrix          : Default (H.263)
    Codec ID                         : XVID
    Codec ID/Hint                    : XviD
    Duration                         : 1h 31mn
    Bit rate                         : 1 956 Kbps
    Width                            : 720 pixels
    Height                           : 400 pixels
    Display aspect ratio             : 16:9
    Frame rate                       : 25.000 fps
    Color space                      : YUV
    Chroma subsampling               : 4:2:0
    Bit depth                        : 8 bits
    Scan type                        : Progressive
    Compression mode                 : Lossy
    Bits/(Pixel*Frame)               : 0.272
    Stream size                      : 1.25 GiB (93%)
    Writing library                  : XviD 1.2.1 (UTC 2008-12-04)






    Audio
    ID                               : 1
    Format                           : MPEG Audio
    Format version                   : Version 1
    Format profile                   : Layer 3
    Mode                             : Joint stereo
    Mode extension                   : MS Stereo
    Codec ID                         : 55
    Codec ID/Hint                    : MP3
    Duration                         : 1h 31mn
    Bit rate mode                    : Constant
    Bit rate                         : 128 Kbps
    Channel(s)                       : 2 channels
    Sampling rate                    : 44.1 KHz
    Compression mode                 : Lossy
    Stream size                      : 20.9 MiB (2%)
    Alignment                        : Aligned on interleaves
    Interleave, duration             : 104 ms (2.61 video frames)
    Writing library                  : LAME3.98.2



     



    ONLINE




    Upozornenie:
    Ziadny zo zobrazených súborov sa nenachádza na tomto serveri. Server slúzi len k síreniu vlastnorucne vytvorených aplikácií, videí, hudby ai. Autori stránok nenesú ziadnu zodpovednost za zverejnené odkazy, komentáre a obsah súborov. Vsetky komentáre, odkazy, súbory ktoré by svojou povahou mohli byt v rozpore zo zákonmi sem vkladáte na vlastnú zodpovednost. Autori stránok si vyhradzujú právo cenzúry odkazov, komentárov príp. súborov, ktoré by svojou povahou mohli byt v rozpore zo zákonmi a dobrými mravmi. Dodrzujte pravidlá!





    2

    Ratio 0

    Clen

    24/08/2019 18.46.21
    Uploader
    24/08/2019 17.46.07
    Děkuji za ohodnoceni torrentu,rád přidavam starši věci je to prostě klasika


    Back

    Na serveru se nenalézají zádne soubory. Za odkazy jsou výhradně zodpovědní uzivatelé a návstěvníci tohoto trackeru. Administrátor není zodpovědný za pridaný obsah ani za skody zpusobené uzivateli. Rozsirovat stránku nebo její obsah bez souhlasu ownera je zakázano. Nesmíte pouzívat tuto webovou stránku pro distribuovaní nebo download zádného materiálu pokud nemáte povolení od príslusného vlastníka práv. Uzivatelé jsou zodpovědní za dodrzování těchto pravidel a podmínek. Owner má právo kdykoliv změnit pravidla tohoto trackeru.

    [ Script trval: 0.038 sec. ] - [ GZIP: enabled ]
    BtiTracker (1.4.8) by Btiteam
    Je zhruba 01:53

    TOPlist