Tvoj účet nieje VIP.
Preto sú tvoje funkcie a možnosti značne obmedzené.
Pre aktiváciu VIP klikni sem.

Velke vitezstvi / A League of Their Own (1992)(Mastered)(Hevc)(1080p)(BluRay)(English-CZ) = CSFD 77% | SkTorrent.eu

Cz-SkTorrent open Tracker, na volné zdielanie súborov. Pridajte sa k nasej komunite a získajte pristup k tisícom torrentov.

  • vysoká rýchlost
  • úplne zdarma
  • prevazne Slovenska a Ceska scena
  • ste tu s nami uz 5 rokov - Dakujeme
  • Vitaj Guest (Login) Ako stahovat
    torrenty?
    Torrenty:
    v1 textová
    v2 obrázková
    v3 online filmy
    Ako sa stat
    Uploaderom
    Online
    Filmy
    Forum
    Pravidlá
    BitTorrent
    klient
    Meno: Heslo:
    Zaregistrovat
    Po zaregistrovaní mozte volne stahovat
    Zabudol som heslo

    Torrent's details
    Velke vitezstvi / A League of Their Own (1992)(Mastered)(Hevc)(1080p)(BluRay)(English-CZ) = CSFD 77% Názov:Velke vitezstvi / A League of Their Own (1992)(Mastered)(Hevc)(1080p)(BluRay)(English-CZ) = CSFD 77% Hodnocení: Stiahnut
    Pozriet Online
    Kategória:Filmy CZ/SK dabing Velikost:1.9 GB BitTorrent klient
    Pridaný: Súbory:
    Skontrolován:2022-04-27 Peerov:7 (Seed: 7, Leech: 0)
    Zaner:Drama,Komedie,Sportovni Uploader:Uvidis, az ked budes
    VIP
    Kúp nám Pivo 1,10€

    Kúp nám Pivo
    Podporte nas na Facebooku !
    Pridaj do zalozky
    Pridaj do zalozky






    [center]





    Movie Name: A League of Their Own (1992)(Mastered)
    IMDb Rating: 7.3/10

    Quality: 1080p (BluRay)
    Language: English (AAC 5.1) Czech (AAC 2.0)
    Subtitles: English/Czech
    Director: Penny Marshall
    Writers: Kim Wilsonn(story)nKelly Candaelen(story)nLowell Ganzn(screenplay)
    Genres: Comedy | Drama | Sport |


    Two sisters join the first female professional baseball league and struggle to help it succeed amidst their own growing rivalry.
    ***
    Dottie Hinsonová odjíždí na setkání baseballového týmu, jehož byla kdysi členkou a vzpomíná na rok 1943. Tehdy hráči baseballu narukovali do války a této hry se ujaly ženy. Dottie byla v týmu se svou sestrou Kit. Jednou za Dottie přijel lovec talentů Ernie Capadino a nabídl jí, jestli by nechtěla hrát v profesionální ženské lize. Dottie nechtěla, její sestra by hrála ráda, ale o ni Ernie zájem neměl. Domluvil se s ní však, že jestli Kit Dottie přesvědčí, aby nabídku přijala, vezme ji do týmu také. Nakonec obě odjíždějí a cestou přijmou ještě další hráčku, Marlu. Po absolvování přípravného kempu musí všechny dívky absolvovat ještě školu slušného chování, tance a chůze. Jako trenér je angažován Jimmy Dugan. Na první zápas přijde úplně opilý a tak se vedení ujme Dottie a zápas vyhrají. Jimmy není spokojený s tím, že má trénovat ženský tým a tka je opilý v jedom kuse. Po pár zápasech se však vzchopí, omezí pití a ujme se trénování. Broskve, jak si tým říká, jsou stále úspěšnější a zakladatel ženské ligy pan harvey je spokojený i se zisky z vyprodaných stadionů. Protože se ale blíží konec války, je rozhodnut ženský tým rozpustit. To ovšem dívky nehodlají připustit…






    [/center]

    Format                                   : Matroska
    Format version                           : Version 4
    File size                                : 1.90 GiB
    Duration                                 : 2 h 7 min
    Overall bit rate                         : 2 125 kb/s
    Encoded date                             : UTC 2021-10-26 21:33:16
    Writing application                      : mkvmerge v61.0.0 ('So') 64-bit
    Writing library                          : libebml v1.4.2 + libmatroska v1.6.4
    Cover                                    : Yes
    Attachments                              : cover.jpg

    Video
    ID                                       : 1
    Format                                   : HEVC
    Format/Info                              : High Efficiency Video Coding
    Format profile                           : Main 10@L4@Main
    Codec ID                                 : V_MPEGH/ISO/HEVC
    Duration                                 : 2 h 7 min
    Bit rate                                 : 1 800 kb/s
    Width                                    : 1 920 pixels
    Height                                   : 800 pixels
    Display aspect ratio                     : 2.40:1
    Frame rate mode                          : Constant
    Frame rate                               : 23.976 (24000/1001) FPS
    Color space                              : YUV
    Chroma subsampling                       : 4:2:0
    Bit depth                                : 10 bits
    Bits/(Pixel*Frame)                       : 0.049
    Stream size                              : 1.61 GiB (85%)
    Writing library                          : x265 1.5+88-0e89af0781ee:[Windows][GCC 4.8.2][64 bit] 16bpp
    Encoding settings                        : wpp / ctu=64 / min-cu-size=8 / max-tu-size=32 / tu-intra-depth=1 / tu-inter-depth=1 / me=2 / subme=3 / merange=44 / no-rect / no-amp / max-merge=3 / temporal-mvp / no-early-skip / rdpenalty=0 / no-tskip / no-tskip-fast / strong-intra-smoothing / no-lossless / no-cu-lossless / no-constrained-intra / no-fast-intra / open-gop / no-temporal-layers / interlace=0 / keyint=250 / min-keyint=23 / scenecut=40 / rc-lookahead=20 / bframes=4 / bframe-bias=0 / b-adapt=2 / ref=3 / weightp / no-weightb / aq-mode=1 / aq-strength=1.00 / cbqpoffs=0 / crqpoffs=0 / rd=3 / psy-rd=0.60 / psy-rdoq=0.00 / signhide / lft / no-sao / no-sao-non-deblock / b-pyramid / cutree / rc=2 / pass / bitrate=1800 / qcomp=0.60 / qpmin=0 / qpmax=51 / qpstep=4 / cplxblur=20.0 / qblur=0.5 / ipratio=1.40 / pbratio=1.30
    Default                                  : Yes
    Forced                                   : No

    Audio #1
    ID                                       : 2
    Format                                   : AAC LC SBR
    Format/Info                              : Advanced Audio Codec Low Complexity with Spectral Band Replication
    Commercial name                          : HE-AAC
    Format settings                          : Explicit
    Codec ID                                 : A_AAC-2
    Duration                                 : 2 h 7 min
    Bit rate                                 : 228 kb/s
    Channel(s)                               : 6 channels
    Channel layout                           : C L R Ls Rs LFE
    Sampling rate                            : 48.0 kHz
    Frame rate                               : 23.438 FPS (2048 SPF)
    Compression mode                         : Lossy
    Delay relative to video                  : 31 ms
    Stream size                              : 209 MiB (11%)
    Language                                 : English
    Default                                  : Yes
    Forced                                   : No

    Audio #2
    ID                                       : 3
    Format                                   : AAC LC SBR
    Format/Info                              : Advanced Audio Codec Low Complexity with Spectral Band Replication
    Commercial name                          : HE-AAC
    Format settings                          : Explicit
    Codec ID                                 : A_AAC-2
    Duration                                 : 2 h 7 min
    Bit rate                                 : 96.0 kb/s
    Channel(s)                               : 2 channels
    Channel layout                           : L R
    Sampling rate                            : 48.0 kHz
    Frame rate                               : 23.438 FPS (2048 SPF)
    Compression mode                         : Lossy
    Delay relative to video                  : 31 ms
    Stream size                              : 86.9 MiB (4%)
    Language                                 : Czech
    Default                                  : No
    Forced                                   : No

    Text #1
    ID                                       : 4
    Format                                   : UTF-8
    Codec ID                                 : S_TEXT/UTF8
    Codec ID/Info                            : UTF-8 Plain Text
    Duration                                 : 2 h 6 min
    Bit rate                                 : 48 b/s
    Count of elements                        : 1658
    Stream size                              : 44.7 KiB (0%)
    Language                                 : Czech
    Default                                  : Yes
    Forced                                   : No

    Text #2
    ID                                       : 5
    Format                                   : UTF-8
    Codec ID                                 : S_TEXT/UTF8
    Codec ID/Info                            : UTF-8 Plain Text
    Duration                                 : 2 h 5 min
    Bit rate                                 : 62 b/s
    Count of elements                        : 1741
    Stream size                              : 57.7 KiB (0%)
    Language                                 : English
    Default                                  : No
    Forced                                   : No











    margharethe,

    + Pridaj vlastnu verziu tohto torrentu +


    Upozornenie:
    Ziadny zo zobrazených súborov sa nenachádza na tomto serveri. Server slúzi len k síreniu vlastnorucne vytvorených aplikácií, videí, hudby ai. Autori stránok nenesú ziadnu zodpovednost za zverejnené odkazy, komentáre a obsah súborov. Vsetky komentáre, odkazy, súbory ktoré by svojou povahou mohli byt v rozpore zo zákonmi sem vkladáte na vlastnú zodpovednost. Autori stránok si vyhradzujú právo cenzúry odkazov, komentárov príp. súborov, ktoré by svojou povahou mohli byt v rozpore zo zákonmi a dobrými mravmi. Dodrzujte pravidlá!


    No comments...


    Back

    Na serveru se nenalézají zádne soubory. Za odkazy jsou výhradně zodpovědní uzivatelé a návstěvníci tohoto trackeru. Administrátor není zodpovědný za pridaný obsah ani za skody zpusobené uzivateli. Rozsirovat stránku nebo její obsah bez souhlasu ownera je zakázano. Nesmíte pouzívat tuto webovou stránku pro distribuovaní nebo download zádného materiálu pokud nemáte povolení od príslusného vlastníka práv. Uzivatelé jsou zodpovědní za dodrzování těchto pravidel a podmínek. Owner má právo kdykoliv změnit pravidla tohoto trackeru.

    [ Script trval: 0.026 sec. ] - [ GZIP: enabled ]
    Je zhruba 22:01
    sql

    TOPlist