Tvoj účet nieje VIP.
Preto sú tvoje funkcie a možnosti značne obmedzené.
Pre aktiváciu VIP klikni sem.

Vetrelec / Alien (1979)(SE)(2XCZ-EN)(Remastered)(1080p)(Blu-Ray)(MAX verze) = CSFD 90% | SkTorrent.eu

Cz-SkTorrent open Tracker, na volné zdielanie súborov. Pridajte sa k nasej komunite a získajte pristup k tisícom torrentov.

  • vysoká rýchlost
  • úplne zdarma
  • prevazne Slovenska a Ceska scena
  • ste tu s nami uz 5 rokov - Dakujeme
  • Vitaj Guest (Login) Ako stahovat
    torrenty?
    Torrenty:
    v1 textová
    v2 obrázková
    v3 online filmy
    Ako sa stat
    Uploaderom
    Online
    Filmy
    Forum
    Pravidlá
    BitTorrent
    klient
    Meno: Heslo:
    Zaregistrovat
    Po zaregistrovaní mozte volne stahovat
    Zabudol som heslo

    Torrent's details
    Vetrelec / Alien (1979)(SE)(2XCZ-EN)(Remastered)(1080p)(Blu-Ray)(MAX verze) = CSFD 90% Názov:Vetrelec / Alien (1979)(SE)(2XCZ-EN)(Remastered)(1080p)(Blu-Ray)(MAX verze) = CSFD 90% Hodnocení: Stiahnut
    Pozriet Online
    Kategória:HD Filmy Velikost:6.3 GB BitTorrent klient
    Pridaný: Súbory:
    Skontrolován:2021-06-11 Peerov:16 (Seed: 13, Leech: 3)
    Zaner:Horor,Sci-Fi Uploader:Uvidis, az ked budes
    VIP
    Kúp nám Pivo 1,10€

    Kúp nám Pivo
    Podporte nas na Facebooku !
    Pridaj do zalozky
    Pridaj do zalozky








    Vetrelec / Alien (1979)(SE)
    BluRay rip 2XCZ a púvodní dabing + CZ tit

                   










    Horor / Sci-Fi
    USA / Velká Británie, 1979, 117 min (Director's Cut: 116 min)
    Režie: Ridley Scott
    Scénář: Dan O'Bannon
    Kamera: Derek Vanlint
    Hudba: Jerry Goldsmith
    Hrají: (Sigourney Weaver - ), Tom Skerritt, Veronica Cartwright, Harry Dean Stanton, John Hurt, Ian Holm, Yaphet Kotto, Bolaji Badejo, Helen Horton





    Vesmírná loď Nostromo míří zpět na Zemi, astronauti spí. Náhle dojde k jejich automatickému probuzení – nikdo neví, co se děje, protože jsou ještě velmi daleko od cíle cesty. Prostřednictvím centrálního počítače zjistí, že přijímače zachytily signál SOS z blízké planety. Posádka je povinna věc vyšetřit. Vyslaný modul má s přistáním velké problémy. Přesto někteří na průzkum. V jeskynním komplexu objeví podivný organizmus, který vypadá jako kolonie vajíček. Počítač mateřské lodi mezitím dešifruje zprávu jako varování, ne jako volání o pomoc. Všichni jsou okamžitě odvoláni. Jenže jedno z vajíček se otevře a jakási hmota ve tvaru chobotnice se během setiny sekundy přisaje na přilbu jednoho z astronautů, přesněji řečeno na jeho obličej. Přes odpor Ripleyové, že je proti bezpečnostním předpisům brát na palubu cokoli neznámého, otevře Ash dveře a všechny vpustí. Po nějaké době je nalezen cizí organismus na podlaze, sám odpadl. Vypadá to, že se postižený těší dobrému zdraví. Při společném jídle však stolující zažijí hrůzné představení. Před jejich očima vyleze z astronautova břicha nějaký tvor, a než stačí kdokoli cokoli podniknout, bleskovou rychlostí zmizí v obrovských prostorách lodi. Začíná noční můra – monstrum postupně likviduje posádku a zdá se, že je nezničitelné…








    Formát                                   : Matroska
    Format version                           : Version 4
    Velikost souboru                         : 6,29 GiB
    Duration                                 : 1 h 55 min
    Celkový BitRate                          : 7 769 kb/s
    Název filmu                              : Vetrelec - Alien (1979)(SE)(2XCZ-EN)(Remastered)(1080p)(Blu-Ray)(MAX verze) PHDTeam
    Encoded date                             : UTC 2021-06-11 14:43:06
    Použitý software                         : mkvmerge v57.0.0 ('Till The End') 64-bit
    Enkódoval                                : libebml v1.4.2 + libmatroska v1.6.4

    Video
    ID                                       : 1
    Formát                                   : AVC
    Formát/Info                              : Advanced Video Codec
    Format profile                           : Main@L4.2
    Format settings                          : CABAC / 4 Ref Frames
    Format settings, CABAC                   : Ano
    Format settings, Reference frames        : 4 frames
    Codec ID                                 : V_MPEG4/ISO/AVC
    Duration                                 : 1 h 55 min
    Bit rate                                 : 6 360 kb/s
    Šířka                                    : 1 920pixely
    Výška                                    : 1 080pixely
    Poměr stran                              : 2,35:1
    Frame rate mode                          : Constant
    Frame rate                               : 23,976 (24000/1001) FPS
    Color space                              : YUV
    Chroma subsampling                       : 4:2:0
    Bit depth                                : 8 bits
    Scan type                                : Progressive
    Bits/(Pixel*Frame)                       : 0.128
    Stream size                              : 5,14 GiB (82%)
    Titul                                    : Vetřelec
    Enkódoval                                : x264 core 155 r2901 7d0ff22
    Nastavení enkoderu                       : cabac=1 / ref=2 / deblock=1:0:0 / analyse=0x1:0x111 / me=hex / subme=6 / psy=1 / psy_rd=1.00:0.00 / mixed_ref=1 / me_range=16 / chroma_me=1 / trellis=1 / 8x8dct=0 / cqm=0 / deadzone=21,11 / fast_pskip=1 / chroma_qp_offset=-2 / threads=6 / lookahead_threads=1 / sliced_threads=0 / nr=0 / decimate=1 / interlaced=0 / bluray_compat=0 / constrained_intra=0 / bframes=3 / b_pyramid=2 / b_adapt=1 / b_bias=0 / direct=1 / weightb=1 / open_gop=0 / weightp=1 / keyint=240 / keyint_min=24 / scenecut=40 / intra_refresh=0 / rc_lookahead=30 / rc=2pass / mbtree=1 / bitrate=6360 / ratetol=1.0 / qcomp=0.60 / qpmin=0 / qpmax=69 / qpstep=4 / cplxblur=20.0 / qblur=0.5 / vbv_maxrate=50000 / vbv_bufsize=62500 / nal_hrd=none / filler=0 / ip_ratio=1.40 / aq=1:1.00
    Jazyk                                    : Czech
    Default                                  : Ano
    Forced                                   : Ne
    Color range                              : Limited
    Color primaries                          : BT.709
    Transfer characteristics                 : BT.709
    Matrix coefficients                      : BT.709

    Audio #1
    ID                                       : 2
    Formát                                   : AC-3
    Formát/Info                              : Audio Coding 3
    Commercial name                          : Dolby Digital
    Codec ID                                 : A_AC3
    Duration                                 : 1 h 55 min
    Bit rate mode                            : Constant
    Bit rate                                 : 640 kb/s
    Kanál(y)                                 : 2 kanály
    Channel layout                           : L R
    Sampling rate                            : 48,0 kHz
    Frame rate                               : 31,250 FPS (1536 SPF)
    Compression mode                         : Lossy
    Stream size                              : 530 MiB (8%)
    Titul                                    : AC3 640 Kbps Stereo
    Jazyk                                    : Czech
    Service kind                             : Complete Main
    Default                                  : Ano
    Forced                                   : Ne

    Audio #2
    ID                                       : 3
    Formát                                   : AC-3
    Formát/Info                              : Audio Coding 3
    Commercial name                          : Dolby Digital
    Codec ID                                 : A_AC3
    Duration                                 : 1 h 55 min
    Bit rate mode                            : Constant
    Bit rate                                 : 384 kb/s
    Kanál(y)                                 : 6 kanály
    Channel layout                           : L R C LFE Ls Rs
    Sampling rate                            : 48,0 kHz
    Frame rate                               : 31,250 FPS (1536 SPF)
    Compression mode                         : Lossy
    Video delay                              : 22 ms
    Stream size                              : 318 MiB (5%)
    Titul                                    : AC3 384 Kbps 5.1 Surround
    Jazyk                                    : Czech
    Service kind                             : Complete Main
    Default                                  : Ne
    Forced                                   : Ne

    Audio #3
    ID                                       : 5
    Formát                                   : AC-3
    Formát/Info                              : Audio Coding 3
    Commercial name                          : Dolby Digital
    Codec ID                                 : A_AC3
    Duration                                 : 1 h 55 min
    Bit rate mode                            : Constant
    Bit rate                                 : 384 kb/s
    Kanál(y)                                 : 6 kanály
    Channel layout                           : L R C LFE Ls Rs
    Sampling rate                            : 48,0 kHz
    Frame rate                               : 31,250 FPS (1536 SPF)
    Compression mode                         : Lossy
    Video delay                              : 22 ms
    Stream size                              : 318 MiB (5%)
    Titul                                    : AC3 384 Kbps 5.1 Surround
    Jazyk                                    : English
    Service kind                             : Complete Main
    Default                                  : Ne
    Forced                                   : Ne

    Text
    ID                                       : 4
    Formát                                   : UTF-8
    Codec ID                                 : S_TEXT/UTF8
    Codec ID/Info                            : UTF-8 Plain Text
    Duration                                 : 1 h 37 min
    Bit rate                                 : 1 b/s
    Count of elements                        : 40
    Stream size                              : 1,11 KiB (0%)
    Jazyk                                    : Czech
    Default                                  : Ano
    Forced                                   : Ne















































    mattess10, tx101, Jano23, Trip77, sarkafarka, VGer, Trismegistos, frpetr,

    + Pridaj vlastnu verziu tohto torrentu +


    Upozornenie:
    Ziadny zo zobrazených súborov sa nenachádza na tomto serveri. Server slúzi len k síreniu vlastnorucne vytvorených aplikácií, videí, hudby ai. Autori stránok nenesú ziadnu zodpovednost za zverejnené odkazy, komentáre a obsah súborov. Vsetky komentáre, odkazy, súbory ktoré by svojou povahou mohli byt v rozpore zo zákonmi sem vkladáte na vlastnú zodpovednost. Autori stránok si vyhradzujú právo cenzúry odkazov, komentárov príp. súborov, ktoré by svojou povahou mohli byt v rozpore zo zákonmi a dobrými mravmi. Dodrzujte pravidlá!





    1
    Břetislav
    Ratio 1.88

    Member+

    12/06/2021 18.35.02
    Pretoriáááááne, další otřesná kvalita. Hhh Vetřelec... Nic jiného neznáš? Klidně vkládej dále a ztrácej čas...

    0
    VGer
    Ratio 0.15

    Clen

    12/06/2021 08.02.26
    super torrent
    a nebyla by lepší kvalita videa?


    --------------
    >> 12/06/2021 08.59.41
    UPLOADER: Ano bola a dnes pridam ak na to bude poziadavka od viacerých
    Mám aj verziu kolem 28-35gb .. Staci si objednat ..


    --------------
    >> 12/06/2021 10.29.40
    VGer: Super,díky

    0
    Harper66
    Ratio 0.26

    Clen

    11/06/2021 20.37.32
    To je maximalni Fullhd kvalita co se da cekat u starsiho filmu, kdyz ma necelych 7gb nebo je to nejak snizeny vcetne kvality zvuku?


    --------------
    >> 11/06/2021 20.51.11
    UPLOADER: Iné Audio DTS  nesedia s touto verzi.. Ak chcete Super kvalitu tak si stiahnite UHD nebo tie nové BR.. Tu je CZ dabing puvodní ve dvech verzii..


    Back

    Na serveru se nenalézají zádne soubory. Za odkazy jsou výhradně zodpovědní uzivatelé a návstěvníci tohoto trackeru. Administrátor není zodpovědný za pridaný obsah ani za skody zpusobené uzivateli. Rozsirovat stránku nebo její obsah bez souhlasu ownera je zakázano. Nesmíte pouzívat tuto webovou stránku pro distribuovaní nebo download zádného materiálu pokud nemáte povolení od príslusného vlastníka práv. Uzivatelé jsou zodpovědní za dodrzování těchto pravidel a podmínek. Owner má právo kdykoliv změnit pravidla tohoto trackeru.

    [ Script trval: 0.024 sec. ] - [ GZIP: enabled ]
    BtiTracker (1.4.8) by Btiteam
    Je zhruba 00:51

    TOPlist