Tvoj účet nieje VIP.
Preto sú tvoje funkcie a možnosti značne obmedzené.
Pre aktiváciu VIP klikni sem.

Vetrelec III - Alien III (1992)(SE)(2XCZ-EN)(Remastered)(1080p)(Blu-Ray)(MAX verze) = CSFD 74% | SkTorrent.eu

Cz-SkTorrent open Tracker, na volné zdielanie súborov. Pridajte sa k nasej komunite a získajte pristup k tisícom torrentov.

  • vysoká rýchlost
  • úplne zdarma
  • prevazne Slovenska a Ceska scena
  • ste tu s nami uz 5 rokov - Dakujeme
  • Vitaj Guest (Login) Ako stahovat
    torrenty?
    Torrenty:
    v1 textová
    v2 obrázková
    v3 online filmy
    Ako sa stat
    Uploaderom
    Online
    Filmy
    Forum
    Pravidlá
    BitTorrent
    klient
    Meno: Heslo:
    Zaregistrovat
    Po zaregistrovaní mozte volne stahovat
    Zabudol som heslo

    Torrent's details
    Vetrelec III - Alien III (1992)(SE)(2XCZ-EN)(Remastered)(1080p)(Blu-Ray)(MAX verze) = CSFD 74% Názov:Vetrelec III - Alien III (1992)(SE)(2XCZ-EN)(Remastered)(1080p)(Blu-Ray)(MAX verze) = CSFD 74% Hodnocení: Stiahnut
    Pozriet Online
    Kategória:HD Filmy Velikost:6.6 GB BitTorrent klient
    Pridaný: Súbory:
    Skontrolován:2021-06-11 Peerov:4 (Seed: 4, Leech: 0)
    Zaner:Akcni,Horor,Sci-Fi Uploader:Uvidis, az ked budes
    VIP
    Kúp nám Pivo 1,10€

    Kúp nám Pivo
    Podporte nas na Facebooku !
    Pridaj do zalozky
    Pridaj do zalozky








    Vetrelec III - Alien III (1992)(SE)
    BluRay rip 2XCZ dabing a púvodní dabing + CZ/EN tit

                   










    Sci-Fi / Akční / Horor
    USA, 1992, 114 min (Special Edition: 145 min)
    Režie: David Fincher
    Scénář: David Giler, Walter Hill, Larry Ferguson
    Kamera: Alex Thomson
    Hudba: Elliot Goldenthal
    Hrají: (Sigourney Weaver - ), Charles S. Dutton, Charles Dance, Paul McGann, Brian Glover, Ralph Brown, Danny Webb, Holt McCallany, Lance Henriksen





    Důstojník Ripleyová jediná přežije nouzové přistání její poškozené vesmírně lodi na planetě Fiorina 161. Je to pusté skladiště odpadu obydlené lidmi, které společnost odsoudila. Setkává se tak s vrahy a kriminálníky, obyvateli bývalého přísně střeženého vězení. Ripleyová tuší, že na palubě její lodi byl Vetřelec. Brzy se její předtucha potvrdí, když najednou vzroste počet mrtvých a začne se nacházet stále více zmrzačených těl. Bez zbraní a moderní techniky se Ripleyová pouští spolu s vězni do boje proti nemilosrdné příšeře. Brzo však zjišťuje, že také ona nosí v sobě jednoho z nich. Aby zničila Vetřelce jednou provždy, musí zabít i sama sebe.








    Formát                                   : Matroska
    Format version                           : Version 4
    Velikost souboru                         : 6,59 GiB
    Duration                                 : 2 h 24 min
    Celkový BitRate                          : 6 511 kb/s
    Název filmu                              : Vetrelec III - Alien III (1992)(Unrated Cut)(2XCZ-EN)(Remastered)(1080p)(Blu-Ray)(MAX verze) PHDTeam.mkv
    Encoded date                             : UTC 2021-06-11 15:01:56
    Použitý software                         : mkvmerge v57.0.0 ('Till The End') 64-bit
    Enkódoval                                : libebml v1.4.2 + libmatroska v1.6.4

    Video
    ID                                       : 1
    Formát                                   : AVC
    Formát/Info                              : Advanced Video Codec
    Format profile                           : Main@L4.2
    Format settings                          : CABAC / 4 Ref Frames
    Format settings, CABAC                   : Ano
    Format settings, Reference frames        : 4 frames
    Codec ID                                 : V_MPEG4/ISO/AVC
    Duration                                 : 2 h 24 min
    Bit rate                                 : 5 100 kb/s
    Šířka                                    : 1 920pixely
    Výška                                    : 1 080pixely
    Poměr stran                              : 2,35:1
    Frame rate mode                          : Constant
    Frame rate                               : 23,976 (24000/1001) FPS
    Color space                              : YUV
    Chroma subsampling                       : 4:2:0
    Bit depth                                : 8 bits
    Scan type                                : Progressive
    Bits/(Pixel*Frame)                       : 0.103
    Stream size                              : 5,16 GiB (78%)
    Titul                                    : Votrelec 3
    Enkódoval                                : x264 core 155 r2901 7d0ff22
    Nastavení enkoderu                       : cabac=1 / ref=2 / deblock=1:0:0 / analyse=0x1:0x111 / me=hex / subme=6 / psy=1 / psy_rd=1.00:0.00 / mixed_ref=1 / me_range=16 / chroma_me=1 / trellis=1 / 8x8dct=0 / cqm=0 / deadzone=21,11 / fast_pskip=1 / chroma_qp_offset=-2 / threads=6 / lookahead_threads=1 / sliced_threads=0 / nr=0 / decimate=1 / interlaced=0 / bluray_compat=0 / constrained_intra=0 / bframes=3 / b_pyramid=2 / b_adapt=1 / b_bias=0 / direct=1 / weightb=1 / open_gop=0 / weightp=1 / keyint=240 / keyint_min=24 / scenecut=40 / intra_refresh=0 / rc_lookahead=30 / rc=2pass / mbtree=1 / bitrate=5100 / ratetol=1.0 / qcomp=0.60 / qpmin=0 / qpmax=69 / qpstep=4 / cplxblur=20.0 / qblur=0.5 / vbv_maxrate=50000 / vbv_bufsize=62500 / nal_hrd=none / filler=0 / ip_ratio=1.40 / aq=1:1.00
    Jazyk                                    : Czech
    Default                                  : Ano
    Forced                                   : Ne
    Color range                              : Limited
    Color primaries                          : BT.709
    Transfer characteristics                 : BT.709
    Matrix coefficients                      : BT.709

    Audio #1
    ID                                       : 2
    Formát                                   : AC-3
    Formát/Info                              : Audio Coding 3
    Commercial name                          : Dolby Digital
    Codec ID                                 : A_AC3
    Duration                                 : 2 h 24 min
    Bit rate mode                            : Constant
    Bit rate                                 : 640 kb/s
    Kanál(y)                                 : 2 kanály
    Channel layout                           : L R
    Sampling rate                            : 48,0 kHz
    Frame rate                               : 31,250 FPS (1536 SPF)
    Compression mode                         : Lossy
    Stream size                              : 663 MiB (10%)
    Titul                                    : AC3 640 Kbps stereo
    Jazyk                                    : Czech
    Service kind                             : Complete Main
    Default                                  : Ano
    Forced                                   : Ne

    Audio #2
    ID                                       : 3
    Formát                                   : AC-3
    Formát/Info                              : Audio Coding 3
    Commercial name                          : Dolby Digital
    Codec ID                                 : A_AC3
    Duration                                 : 2 h 24 min
    Bit rate mode                            : Constant
    Bit rate                                 : 448 kb/s
    Kanál(y)                                 : 6 kanály
    Channel layout                           : L R C LFE Ls Rs
    Sampling rate                            : 48,0 kHz
    Frame rate                               : 31,250 FPS (1536 SPF)
    Compression mode                         : Lossy
    Video delay                              : -5 ms
    Stream size                              : 464 MiB (7%)
    Titul                                    : DD 5.1 448 Kbps
    Jazyk                                    : Czech
    Service kind                             : Complete Main
    Default                                  : Ne
    Forced                                   : Ne

    Audio #3
    ID                                       : 5
    Formát                                   : AC-3
    Formát/Info                              : Audio Coding 3
    Commercial name                          : Dolby Digital
    Codec ID                                 : A_AC3
    Duration                                 : 2 h 24 min
    Bit rate mode                            : Constant
    Bit rate                                 : 320 kb/s
    Kanál(y)                                 : 6 kanály
    Channel layout                           : L R C LFE Ls Rs
    Sampling rate                            : 48,0 kHz
    Frame rate                               : 31,250 FPS (1536 SPF)
    Compression mode                         : Lossy
    Video delay                              : -5 ms
    Stream size                              : 332 MiB (5%)
    Titul                                    : DD 5.1 320 Kbps
    Jazyk                                    : English
    Service kind                             : Complete Main
    Default                                  : Ne
    Forced                                   : Ne

    Text #1
    ID                                       : 4
    Formát                                   : UTF-8
    Codec ID                                 : S_TEXT/UTF8
    Codec ID/Info                            : UTF-8 Plain Text
    Duration                                 : 2 h 10 min
    Bit rate                                 : 10 b/s
    Count of elements                        : 321
    Stream size                              : 10,3 KiB (0%)
    Titul                                    : Forced
    Jazyk                                    : Czech
    Default                                  : Ano
    Forced                                   : Ne

    Text #2
    ID                                       : 6
    Formát                                   : VobSub
    Muxing mode                              : zlib
    Codec ID                                 : S_VOBSUB
    Codec ID/Info                            : Picture based subtitle format used on DVDs
    Duration                                 : 2 h 18 min
    Bit rate                                 : 6 030 b/s
    Count of elements                        : 3130
    Stream size                              : 5,99 MiB (0%)
    Titul                                    : EN titulky
    Jazyk                                    : English
    Default                                  : Ne
    Forced                                   : Ne




























    mattess10, Trip77, Trismegistos, stetson2020,

    + Pridaj vlastnu verziu tohto torrentu +


    Upozornenie:
    Ziadny zo zobrazených súborov sa nenachádza na tomto serveri. Server slúzi len k síreniu vlastnorucne vytvorených aplikácií, videí, hudby ai. Autori stránok nenesú ziadnu zodpovednost za zverejnené odkazy, komentáre a obsah súborov. Vsetky komentáre, odkazy, súbory ktoré by svojou povahou mohli byt v rozpore zo zákonmi sem vkladáte na vlastnú zodpovednost. Autori stránok si vyhradzujú právo cenzúry odkazov, komentárov príp. súborov, ktoré by svojou povahou mohli byt v rozpore zo zákonmi a dobrými mravmi. Dodrzujte pravidlá!


    No comments...


    Back

    Na serveru se nenalézají zádne soubory. Za odkazy jsou výhradně zodpovědní uzivatelé a návstěvníci tohoto trackeru. Administrátor není zodpovědný za pridaný obsah ani za skody zpusobené uzivateli. Rozsirovat stránku nebo její obsah bez souhlasu ownera je zakázano. Nesmíte pouzívat tuto webovou stránku pro distribuovaní nebo download zádného materiálu pokud nemáte povolení od príslusného vlastníka práv. Uzivatelé jsou zodpovědní za dodrzování těchto pravidel a podmínek. Owner má právo kdykoliv změnit pravidla tohoto trackeru.

    [ Script trval: 0.056 sec. ] - [ GZIP: enabled ]
    BtiTracker (1.4.8) by Btiteam
    Je zhruba 00:22

    TOPlist