Tvoj účet nieje VIP.
Preto sú tvoje funkcie a možnosti značne obmedzené.
Pre aktiváciu VIP klikni sem.

Vetrelec - Vzkriseni (1997)(SE)(2XCZ-EN)(Remastered)(1080p)(Blu-Ray)(MAX verze) = CSFD 67% | SkTorrent.eu

Cz-SkTorrent open Tracker, na volné zdielanie súborov. Pridajte sa k nasej komunite a získajte pristup k tisícom torrentov.

  • vysoká rýchlost
  • úplne zdarma
  • prevazne Slovenska a Ceska scena
  • ste tu s nami uz 5 rokov - Dakujeme
  • Vitaj Guest (Login) Ako stahovat
    torrenty?
    Torrenty:
    v1 textová
    v2 obrázková
    v3 online filmy
    Ako sa stat
    Uploaderom
    Online
    Filmy
    Forum
    Pravidlá
    BitTorrent
    klient
    Meno: Heslo:
    Zaregistrovat
    Po zaregistrovaní mozte volne stahovat
    Zabudol som heslo

    Torrent's details
    Vetrelec - Vzkriseni  (1997)(SE)(2XCZ-EN)(Remastered)(1080p)(Blu-Ray)(MAX verze) = CSFD 67% Názov:Vetrelec - Vzkriseni (1997)(SE)(2XCZ-EN)(Remastered)(1080p)(Blu-Ray)(MAX verze) = CSFD 67% Hodnocení: Stiahnut
    Pozriet Online
    Kategória:HD Filmy Velikost:6.4 GB BitTorrent klient
    Pridaný: Súbory:
    Skontrolován:2021-06-11 Peerov:6 (Seed: 6, Leech: 0)
    Zaner:Akcni,Horor,Sci-Fi Uploader:Uvidis, az ked budes
    VIP
    Kúp nám Pivo 1,10€

    Kúp nám Pivo
    Podporte nas na Facebooku !
    Pridaj do zalozky
    Pridaj do zalozky








    Vetrelec - Vzkříšení  (1997)(SE)
    BluRay rip 2XCZ dabing a púvodní dabing + CZ tit

                   










    Akční / Horor / Sci-Fi
    USA, 1997, 109 min (Special Edition: 116 min)
    Režie: Jean-Pierre Jeunet
    Scénář: Joss Whedon
    Kamera: Darius Khondji
    Hudba: John Frizzell
    Hrají: (Sigourney Weaver - ), Winona Ryder, Dominique Pinon, Ron Perlman, Gary Dourdan, Michael Wincott, Kim Flowers, Dan Hedaya, J.E. Freeman, Brad Dourif,





    https://www.csfd.cz/film/12177-vetrelec-vzkriseni/prehled/








    Formát                                   : Matroska
    Format version                           : Version 4
    Velikost souboru                         : 6,40 GiB
    Duration                                 : 1 h 56 min
    Celkový BitRate                          : 7 892 kb/s
    Název filmu                              : Vetrelec - Vzkříšení  (1997)(Unrated Cut)(2XCZ-EN)(Remastered)(1080p)(Blu-Ray)(MAX verze) PHDTeam.mkv
    Encoded date                             : UTC 2021-06-11 15:06:01
    Použitý software                         : mkvmerge v57.0.0 ('Till The End') 64-bit
    Enkódoval                                : libebml v1.4.2 + libmatroska v1.6.4

    Video
    ID                                       : 1
    Formát                                   : AVC
    Formát/Info                              : Advanced Video Codec
    Format profile                           : Main@L4.2
    Format settings                          : CABAC / 4 Ref Frames
    Format settings, CABAC                   : Ano
    Format settings, Reference frames        : 4 frames
    Codec ID                                 : V_MPEG4/ISO/AVC
    Duration                                 : 1 h 56 min
    Bit rate                                 : 6 580 kb/s
    Šířka                                    : 1 920pixely
    Výška                                    : 1 080pixely
    Poměr stran                              : 2,35:1
    Frame rate mode                          : Constant
    Frame rate                               : 23,976 (24000/1001) FPS
    Color space                              : YUV
    Chroma subsampling                       : 4:2:0
    Bit depth                                : 8 bits
    Scan type                                : Progressive
    Bits/(Pixel*Frame)                       : 0.132
    Stream size                              : 5,34 GiB (83%)
    Titul                                    : Vetřelec - Vzkříšení
    Enkódoval                                : x264 core 155 r2901 7d0ff22
    Nastavení enkoderu                       : cabac=1 / ref=2 / deblock=1:0:0 / analyse=0x1:0x111 / me=hex / subme=6 / psy=1 / psy_rd=1.00:0.00 / mixed_ref=1 / me_range=16 / chroma_me=1 / trellis=1 / 8x8dct=0 / cqm=0 / deadzone=21,11 / fast_pskip=1 / chroma_qp_offset=-2 / threads=6 / lookahead_threads=1 / sliced_threads=0 / nr=0 / decimate=1 / interlaced=0 / bluray_compat=0 / constrained_intra=0 / bframes=3 / b_pyramid=2 / b_adapt=1 / b_bias=0 / direct=1 / weightb=1 / open_gop=0 / weightp=1 / keyint=240 / keyint_min=24 / scenecut=40 / intra_refresh=0 / rc_lookahead=30 / rc=2pass / mbtree=1 / bitrate=6580 / ratetol=1.0 / qcomp=0.60 / qpmin=0 / qpmax=69 / qpstep=4 / cplxblur=20.0 / qblur=0.5 / vbv_maxrate=50000 / vbv_bufsize=62500 / nal_hrd=none / filler=0 / ip_ratio=1.40 / aq=1:1.00
    Jazyk                                    : Czech
    Default                                  : Ano
    Forced                                   : Ne
    Color range                              : Limited
    Color primaries                          : BT.709
    Transfer characteristics                 : BT.709
    Matrix coefficients                      : BT.709

    Audio #1
    ID                                       : 2
    Formát                                   : AC-3
    Formát/Info                              : Audio Coding 3
    Commercial name                          : Dolby Digital
    Codec ID                                 : A_AC3
    Duration                                 : 1 h 56 min
    Bit rate mode                            : Constant
    Bit rate                                 : 640 kb/s
    Kanál(y)                                 : 2 kanály
    Channel layout                           : L R
    Sampling rate                            : 48,0 kHz
    Frame rate                               : 31,250 FPS (1536 SPF)
    Compression mode                         : Lossy
    Stream size                              : 532 MiB (8%)
    Titul                                    : AC3 640 Kbps Stereo
    Jazyk                                    : Czech
    Service kind                             : Complete Main
    Default                                  : Ano
    Forced                                   : Ne

    Audio #2
    ID                                       : 3
    Formát                                   : AC-3
    Formát/Info                              : Audio Coding 3
    Commercial name                          : Dolby Digital
    Codec ID                                 : A_AC3
    Duration                                 : 1 h 56 min
    Bit rate mode                            : Constant
    Bit rate                                 : 448 kb/s
    Kanál(y)                                 : 6 kanály
    Channel layout                           : L R C LFE Ls Rs
    Sampling rate                            : 48,0 kHz
    Frame rate                               : 31,250 FPS (1536 SPF)
    Compression mode                         : Lossy
    Video delay                              : -5 ms
    Stream size                              : 372 MiB (6%)
    Titul                                    : AC3 5.1 448 Kbps
    Jazyk                                    : Czech
    Service kind                             : Complete Main
    Default                                  : Ne
    Forced                                   : Ne

    Audio #3
    ID                                       : 5
    Formát                                   : AAC LC
    Formát/Info                              : Advanced Audio Codec Low Complexity
    Codec ID                                 : A_AAC-2
    Duration                                 : 1 h 56 min
    Bit rate                                 : 224 kb/s
    Kanál(y)                                 : 6 kanály
    Channel layout                           : C L R Ls Rs LFE
    Sampling rate                            : 48,0 kHz
    Frame rate                               : 46,875 FPS (1024 SPF)
    Compression mode                         : Lossy
    Video delay                              : -5 ms
    Stream size                              : 186 MiB (3%)
    Titul                                    : AAC 5.1 224 Kbps
    Jazyk                                    : English
    Default                                  : Ne
    Forced                                   : Ne

    Text
    ID                                       : 4
    Formát                                   : UTF-8
    Codec ID                                 : S_TEXT/UTF8
    Codec ID/Info                            : UTF-8 Plain Text
    Duration                                 : 1 h 43 min
    Bit rate                                 : 3 b/s
    Count of elements                        : 103
    Stream size                              : 3,03 KiB (0%)
    Titul                                    : Forced
    Jazyk                                    : Czech
    Default                                  : Ano
    Forced                                   : Ne

























    mattess10, Trip77, alibaba147, Trismegistos, Qatrox, stetson2020,

    + Pridaj vlastnu verziu tohto torrentu +


    Upozornenie:
    Ziadny zo zobrazených súborov sa nenachádza na tomto serveri. Server slúzi len k síreniu vlastnorucne vytvorených aplikácií, videí, hudby ai. Autori stránok nenesú ziadnu zodpovednost za zverejnené odkazy, komentáre a obsah súborov. Vsetky komentáre, odkazy, súbory ktoré by svojou povahou mohli byt v rozpore zo zákonmi sem vkladáte na vlastnú zodpovednost. Autori stránok si vyhradzujú právo cenzúry odkazov, komentárov príp. súborov, ktoré by svojou povahou mohli byt v rozpore zo zákonmi a dobrými mravmi. Dodrzujte pravidlá!


    No comments...


    Back

    Na serveru se nenalézají zádne soubory. Za odkazy jsou výhradně zodpovědní uzivatelé a návstěvníci tohoto trackeru. Administrátor není zodpovědný za pridaný obsah ani za skody zpusobené uzivateli. Rozsirovat stránku nebo její obsah bez souhlasu ownera je zakázano. Nesmíte pouzívat tuto webovou stránku pro distribuovaní nebo download zádného materiálu pokud nemáte povolení od príslusného vlastníka práv. Uzivatelé jsou zodpovědní za dodrzování těchto pravidel a podmínek. Owner má právo kdykoliv změnit pravidla tohoto trackeru.

    [ Script trval: 0.026 sec. ] - [ GZIP: enabled ]
    BtiTracker (1.4.8) by Btiteam
    Je zhruba 23:58

    TOPlist