Tvoj účet nieje VIP.
Preto sú tvoje funkcie a možnosti značne obmedzené.
Pre aktiváciu VIP klikni sem.

Von Ryanův Expres / Von Ryan's Express (1965)(CZ) = CSFD 80% | SkTorrent.eu

Cz-SkTorrent open Tracker, na volné zdieľanie súborov. Pridajte sa k našej komunite a získajte prístup k tisícom torrentov.

  • vysoká rýchlosť
  • úplne zdarma
  • prevažne Slovenská a Česká scéna
  • ste tu s nami už 10 rokov - Ďakujeme
  • Vitaj Guest (Login) Ako stahovat
    torrenty?
    Torrenty:
    v1 textová
    v2 obrázková
    Ako sa stat
    Uploaderom
    Online
    Filmy
    Forum
    Pravidlá
    SkTSocial
    BitTorrent
    klient
    Meno: Heslo:
    Zaregistrovat
    Po zaregistrovaní mozte volne stahovat
    Zabudol som heslo

    Von Ryanův Expres / Von Ryan's Express (1965)(CZ) = CSFD 80% Názov:Von Ryanův Expres / Von Ryan's Express (1965)(CZ) = CSFD 80% Hodnocení: Stiahnut
    Pozriet Online
    Kategória:Filmy CZ/SK dabing - Velikost:1.3 GB BitTorrent klient
    Pridaný: Súbory:
    Skontrolován:2024-04-03 Peerov:42 (Seed: 42, Leech: 0)
    Zaner:Dobrodruzny,Drama,Valecny Uploader:Uvidis, az ked budes
    VIP
    Kúp nám Pivo 1,10€

    Kúp nám Pivo

    Pridaj do zalozky
    Pridaj do zalozky




    https://www.csfd.cz/film/26953-von-ryanuv-expres/prehled/

    Když unikne jen jediný, bude to vítězství. Frank Sinatra jako strůjce troufalého útěku za hranice fašistické Itálie... Na sklonku fašistické diktatury Benita Mussoliniho se plukovník letectva americké armády Joseph Ryan ocitá v italském zajateckém táboře. Jako zajatec s nejvyšší hodností se stává vůdcem spojeneckých vojáků, kteří plánují útěk z tábora řízeného italským tyranem Battagliou. Po kapitulaci Itálie se podaří vězňům dostat na svobodu, záhy se ovšem ocitnou v rukou německé jednotky, která jim vystaví jednosměrnou jízdenku do Říše. Plukovník Ryan ale vymyslí plán, jak se zmocnit celé vlakové soupravy pod přísným dohledem vrchního nacistického vedení. Stačí využít vhodné příležitosti k převzetí německého expresu. Začíná zběsilá vlaková jízda za nepřátelskou linii v režii neohroženého Ryana, jehož ztvárnil hvězdný Frank Sinatra. Když se podaří dostat za hranice Itálie alespoň jednomu, bude to představovat vítězství.








    Duration                                 : 1 h 52 min
    Celkový BitRate                          : 1 635 kb/s
    Frame rate                               : 25,000 FPS
    Použitý software                         : VirtualDubMod 1.5.4.1 (build 2066/release)
    Enkódoval                                : VirtualDubMod build 2066/release

    Video
    ID                                       : 0
    Formát                                   : MPEG-4 Visual
    Format profile                           : Advanced Simple@L5
    Format settings                          : BVOP2 / Custom Matrix
    Format settings, BVOP                    : 2
    Format settings, QPel                    : Ne
    Format settings, GMC                     : No warppoints
    Format settings, Matrix                  : Custom
    Codec ID                                 : XVID
    Codec ID/Hint                            : XviD
    Duration                                 : 1 h 52 min
    Bit rate                                 : 1 433 kb/s
    Šířka                                    : 720pixely
    Výška                                    : 304pixely
    Poměr stran                              : 2,35:1
    Frame rate                               : 25,000 FPS
    Color space                              : YUV
    Chroma subsampling                       : 4:2:0
    Bit depth                                : 8 bits
    Scan type                                : Progressive
    Compression mode                         : Lossy
    Bits/(Pixel*Frame)                       : 0.262
    Stream size                              : 1,12 GiB (88%)
    Enkódoval                                : XviD 1.2.0SMP (2006-01-08)

    Audio
    ID                                       : 1
    Formát                                   : MPEG Audio
    Format version                           : Version 1
    Format profile                           : Layer 3
    Format settings                          : Dual mono
    Codec ID                                 : 55
    Codec ID/Hint                            : MP3
    Duration                                 : 1 h 52 min
    Bit rate mode                            : Constant
    Bit rate                                 : 192 kb/s
    Kanál(y)                                 : 2 kanály
    Sampling rate                            : 44,1 kHz
    Compression mode                         : Lossy
    Video delay                              : 6 s 0 ms
    Stream size                              : 154 MiB (12%)
    Alignment                                : Split across interleaves
    Interleave, duration                     : 40  ms (1,00 video frame)
    Interleave, preload duration             : 500  ms







    luboskopavol, dyndym, najytus, Hebrejec, Gooe, aznoh13, bilk, CornelSulla, Premca, BERUJIZEZADU, burda99, tibotibo, pohee,

    + Pridaj vlastnu verziu tohto torrentu +


    Upozornenie:
    Ziadny zo zobrazených súborov sa nenachádza na tomto serveri. Server slúzi len k síreniu vlastnorucne vytvorených aplikácií, videí, hudby ai. Autori stránok nenesú ziadnu zodpovednost za zverejnené odkazy, komentáre a obsah súborov. Vsetky komentáre, odkazy, súbory ktoré by svojou povahou mohli byt v rozpore zo zákonmi sem vkladáte na vlastnú zodpovednost. Autori stránok si vyhradzujú právo cenzúry odkazov, komentárov príp. súborov, ktoré by svojou povahou mohli byt v rozpore zo zákonmi a dobrými mravmi. Dodrzujte pravidlá!


    No comments...


    Back

    Na serveru se nenalézají zádne soubory. Za odkazy jsou výhradně zodpovědní uzivatelé a návstěvníci tohoto trackeru. Administrátor není zodpovědný za pridaný obsah ani za skody zpusobené uzivateli. Nesmíte pouzívat tuto webovou stránku pro distribuovaní nebo download zádného materiálu pokud nemáte povolení od príslusného vlastníka práv. Uzivatelé jsou zodpovědní za dodrzování těchto pravidel a podmínek. Owner má právo kdykoliv změnit pravidla tohoto trackeru.

    [ Script trval: 0.073 sec. ] - [ GZIP: enabled ]
    Je zhruba 11:33
    memcache

    TOPlist