Tvoj účet nieje VIP.
Preto sú tvoje funkcie a možnosti značne obmedzené.
Pre aktiváciu VIP klikni sem.

Vratny od Maxima / Le Chasseur de chez Maxim's (1976)(CZ) = CSFD 74% | SkTorrent.eu

Cz-SkTorrent open Tracker, na volné zdieľanie súborov. Pridajte sa k našej komunite a získajte prístup k tisícom torrentov.

  • vysoká rýchlosť
  • úplne zdarma
  • prevažne Slovenská a Česká scéna
  • ste tu s nami už 10 rokov - Ďakujeme
  • Vitaj Guest (Login) Ako stahovat
    torrenty?
    Torrenty:
    v1 textová
    v2 obrázková
    Ako sa stat
    Uploaderom
    Online
    Filmy
    Forum
    Pravidlá
    SkTSocial
    BitTorrent
    klient
    Meno: Heslo:
    Zaregistrovat
    Po zaregistrovaní mozte volne stahovat
    Zabudol som heslo

    Vratny od Maxima / Le Chasseur de chez Maxim's (1976)(CZ) = CSFD 74% Názov:Vratny od Maxima / Le Chasseur de chez Maxim's (1976)(CZ) = CSFD 74% Hodnocení:N/A Stiahnut
    Pozriet Online
    Kategória:Filmy CZ/SK dabing - Velikost:698.6 MB BitTorrent klient
    Pridaný: Súbory:
    Skontrolován:2013-12-03 Peerov:0 (Seed: 0, Leech: 0)
    Zaner:Komedie Uploader:Uvidis, az ked budes
    VIP
    Kúp nám Pivo 1,10€

    Kúp nám Pivo

    Pridaj do zalozky
    Pridaj do zalozky




    Jazyk:   český
    Titulky:  Ne
    Rok vydání: 1976
    Délka: 83 minut
    Žánr: Komedie
    Odkaz na csfd: http://www.csfd.cz/film/38061-vratny-od-maxima/

    Obrazek
    Popis MediaInfo:
    General
    Complete name                            : Z:\4. Francouzske filmy cz dubing 104 GB\Vrátný od Maxima.avi
    Format                                   : AVI
    Format/Info                              : Audio Video Interleave
    File size                                : 699 MiB
    Duration                                 : 1h 24mn
    Overall bit rate                         : 1 154 Kbps

    Video
    ID                                       : 0
    Format                                   : MPEG-4 Visual
    Format profile                           : Advanced Simple@L5
    Format settings, BVOP                    : 2
    Format settings, QPel                    : No
    Format settings, GMC                     : No warppoints
    Format settings, Matrix                  : Default (H.263)
    Codec ID                                 : XVID
    Codec ID/Hint                            : XviD
    Duration                                 : 1h 24mn
    Bit rate                                 : 1 029 Kbps
    Width                                    : 672 pixels
    Height                                   : 412 pixels
    Display aspect ratio                     : 16:10
    Frame rate                               : 25.000 fps
    Color space                              : YUV
    Chroma subsampling                       : 4:2:0
    Bit depth                                : 8 bits
    Scan type                                : Progressive
    Compression mode                         : Lossy
    Bits/(Pixel*Frame)                       : 0.149
    Stream size                              : 623 MiB (89%)
    Writing library                          : XviD 1.2.1 (UTC 2008-12-04)

    Audio
    ID                                       : 1
    Format                                   : MPEG Audio
    Format version                           : Version 1
    Format profile                           : Layer 3
    Codec ID                                 : 55
    Codec ID/Hint                            : MP3
    Duration                                 : 1h 24mn
    Source duration                          : 1h 24mn
    Bit rate mode                            : Constant
    Bit rate                                 : 112 Kbps
    Channel(s)                               : 2 channels
    Sampling rate                            : 48.0 KHz
    Compression mode                         : Lossy
    Stream size                              : 67.8 MiB (10%)
    Alignment                                : Split accross interleaves
    Interleave, duration                     : 24 ms (0.60 video frame)


    Popis filmu
    Julien (Michel Galabru) vede dva životy. Je spořádaným otcem bohaté rodiny žijící v honosném venkovském zámku a vydává se za velkovýrobce zeleninových konzerv. Oficiálně ale pracuje jako vrátný v nejproslulejší pařížské restauraci, u Maxima. A ve skutečnosti je navíc šedou eminencí celého podniku. Dokonale se totiž vyzná ve slabostech svých zákazníků. Hrdinův spokojený život by zdárně pokračoval, kdyby mu manželka (Claude Gensac) jednoho dne nepředstavila synovce Octava a netrvala na tom, aby ho zaměstnal ve své továrně. Julienovi tedy nezbývá nic jiného, než představit mladíkovi svoji červenou uniformu vrátného a taky svoji milenku Totosche. Klient od Maxima, zchudlý markýz du Velin ve slabé chvíli nabídne Totoche sňatek, avšak ve skutečnosti se hodlá oženit z bohatou dívkou z jisté šlechtické rodiny, aniž pochopitelně tuší, že jeho vyvolená je Julienova extravagantní dcera Genevieve. Oklamaná salónní krasavice přísahá pomstu... Během markýzových námluv se na zámku postupně sejdou všichni aktéři svérázného milostného propletence. Hrozící skandál je však stále pod pokličkou, ...tedy jen do té doby než vypočítavá Totoche zjistí, že šek za její mlčení je nekrytý. Julienova choť Germaina spolu s kanovníkem (Jean Lefebvre) vyráží hledat manžela, který uprchl i s Octavem na motocyklu a taky dceru, která pro změnu uprchla s markýzem v jeho autě. Všichni se samozřejmě sejdou u Maxima...







    milanuska,

    + Pridaj vlastnu verziu tohto torrentu +


    Upozornenie:
    Ziadny zo zobrazených súborov sa nenachádza na tomto serveri. Server slúzi len k síreniu vlastnorucne vytvorených aplikácií, videí, hudby ai. Autori stránok nenesú ziadnu zodpovednost za zverejnené odkazy, komentáre a obsah súborov. Vsetky komentáre, odkazy, súbory ktoré by svojou povahou mohli byt v rozpore zo zákonmi sem vkladáte na vlastnú zodpovednost. Autori stránok si vyhradzujú právo cenzúry odkazov, komentárov príp. súborov, ktoré by svojou povahou mohli byt v rozpore zo zákonmi a dobrými mravmi. Dodrzujte pravidlá!


    No comments...


    Back

    Na serveru se nenalézají zádne soubory. Za odkazy jsou výhradně zodpovědní uzivatelé a návstěvníci tohoto trackeru. Administrátor není zodpovědný za pridaný obsah ani za skody zpusobené uzivateli. Nesmíte pouzívat tuto webovou stránku pro distribuovaní nebo download zádného materiálu pokud nemáte povolení od príslusného vlastníka práv. Uzivatelé jsou zodpovědní za dodrzování těchto pravidel a podmínek. Owner má právo kdykoliv změnit pravidla tohoto trackeru.

    [ Script trval: 0.085 sec. ] - [ GZIP: enabled ]
    Je zhruba 11:44
    memcache

    TOPlist