Tvoj účet nieje VIP.
Preto sú tvoje funkcie a možnosti značne obmedzené.
Pre aktiváciu VIP klikni sem.

Vyvoleny / Unbreakable (2000)(Mastered)(1080p)(BluRay)(English-CZ) = CSFD 79% | SkTorrent.eu

Cz-SkTorrent open Tracker, na volné zdieľanie súborov. Pridajte sa k našej komunite a získajte prístup k tisícom torrentov.

  • vysoká rýchlosť
  • úplne zdarma
  • prevažne Slovenská a Česká scéna
  • ste tu s nami už 10 rokov - Ďakujeme
  • Vitaj Guest (Login) Ako stahovat
    torrenty?
    Torrenty:
    v1 textová
    v2 obrázková
    Ako sa stat
    Uploaderom
    Online
    Filmy
    Forum
    Pravidlá
    SkTSocial
    BitTorrent
    klient
    Meno: Heslo:
    Zaregistrovat
    Po zaregistrovaní mozte volne stahovat
    Zabudol som heslo

    Vyvoleny / Unbreakable (2000)(Mastered)(1080p)(BluRay)(English-CZ) = CSFD 79% Názov:Vyvoleny / Unbreakable (2000)(Mastered)(1080p)(BluRay)(English-CZ) = CSFD 79% Hodnocení: Stiahnut
    Pozriet Online
    Kategória:Filmy CZ/SK dabing - cz Velikost:2.2 GB BitTorrent klient
    Pridaný: Súbory:
    Skontrolován:2022-12-03 Peerov:50 (Seed: 50, Leech: 0)
    Zaner:Drama,Mysteriozni,Sci-Fi,Thriller Uploader:Uvidis, az ked budes
    VIP
    Kúp nám Pivo 1,10€

    Kúp nám Pivo

    Pridaj do zalozky
    Pridaj do zalozky






    [center]





    Movie Name: Unbreakable (2000)(Mastered)
    IMDb Rating: 7.3/10

    Quality: 1080p (BluRay)
    Language: English (AAC 2.0) Czech (AAC 2.0)
    Subtitles: English/Czech
    Director: M. Night Shyamalan
    Writers: M. Night Shyamalan
    Genres: Sci-fi | Drama | Mistery |


    A man learns something extraordinary about himself after a devastating accident.
    ***
    Davidovo manželství prochází krizí, poslední dobou se mu příliš nedaří a ani psychicky na tom není nejlépe. Přesto má obrovské štěstí. Stane se jediným člověkem, který přežil děsivou havárii vlaku při návratu z New Yorku, kde se pokoušel sehnat lepší práci. Probere se v nemocnici. Z televize se dozví děsivé detaily o smrti skoro sto dvaceti cestujících i o tom, že trosky vlaku se rozlétly na míli daleko. On sám nemá ani škrábnutí. Za pár dní najde za stěračem auta lístek s otázkou: "Byl jste někdy nemocný?" Začne hledat člověka, který mu tam lístek nechal. Je to Elijah, majitel komiksové galerie, který trpí vrozenou vadou mající za následek extrémní křehkost kostí. Elijah hledá někoho, kdo je jeho pravým opakem - člověka nepoškoditelného, nezničitelného. Je přesvědčen, že je to právě David, a považuje ho za komiksového hrdinu, kterému je třeba do cesty stavět různé překážky, na nichž má dokazovat svou nepřekonatelnost.






    [/center]

    Format                                   : Matroska
    Format version                           : Version 4
    File size                                : 2.15 GiB
    Duration                                 : 1 h 46 min
    Overall bit rate                         : 2 882 kb/s
    Encoded date                             : UTC 2020-11-03 17:26:17
    Writing application                      : mkvmerge v50.0.0 ('Awakenings') 64-bit
    Writing library                          : libebml v1.4.0 + libmatroska v1.6.2

    Video
    ID                                       : 1
    Format                                   : AVC
    Format/Info                              : Advanced Video Codec
    Format profile                           : High@L4.1
    Format settings                          : CABAC / 4 Ref Frames
    Format settings, CABAC                   : Yes
    Format settings, Reference frames        : 4 frames
    Codec ID                                 : V_MPEG4/ISO/AVC
    Duration                                 : 1 h 46 min
    Bit rate                                 : 2 500 kb/s
    Width                                    : 1 920 pixels
    Height                                   : 816 pixels
    Display aspect ratio                     : 2.35:1
    Frame rate mode                          : Constant
    Frame rate                               : 23.976 (23976/1000) FPS
    Color space                              : YUV
    Chroma subsampling                       : 4:2:0
    Bit depth                                : 8 bits
    Scan type                                : Progressive
    Bits/(Pixel*Frame)                       : 0.067
    Stream size                              : 1.86 GiB (87%)
    Writing library                          : x264 core 152 r2851M ba24899
    Encoding settings                        : cabac=1 / ref=4 / deblock=1:-1:-1 / analyse=0x3:0x113 / me=umh / subme=9 / psy=1 / psy_rd=1.00:0.15 / mixed_ref=1 / me_range=24 / chroma_me=1 / trellis=2 / 8x8dct=1 / cqm=0 / deadzone=21,11 / fast_pskip=1 / chroma_qp_offset=-3 / threads=32 / lookahead_threads=4 / sliced_threads=0 / nr=0 / decimate=1 / interlaced=0 / bluray_compat=0 / constrained_intra=0 / bframes=3 / b_pyramid=2 / b_adapt=2 / b_bias=0 / direct=3 / weightb=1 / open_gop=0 / weightp=2 / keyint=250 / keyint_min=25 / scenecut=40 / intra_refresh=0 / rc_lookahead=50 / rc=2pass / mbtree=1 / bitrate=2500 / ratetol=1.0 / qcomp=0.60 / qpmin=0 / qpmax=69 / qpstep=4 / cplxblur=20.0 / qblur=0.5 / vbv_maxrate=31250 / vbv_bufsize=31250 / nal_hrd=none / filler=0 / ip_ratio=1.40 / aq=3:1.00
    Default                                  : Yes
    Forced                                   : No

    Audio #1
    ID                                       : 2
    Format                                   : AC-3
    Format/Info                              : Audio Coding 3
    Commercial name                          : Dolby Digital
    Codec ID                                 : A_AC3
    Duration                                 : 1 h 46 min
    Bit rate mode                            : Constant
    Bit rate                                 : 192 kb/s
    Channel(s)                               : 2 channels
    Channel layout                           : L R
    Sampling rate                            : 48.0 kHz
    Frame rate                               : 31.250 FPS (1536 SPF)
    Compression mode                         : Lossy
    Stream size                              : 147 MiB (7%)
    Title                                    : czech
    Language                                 : Czech
    Service kind                             : Complete Main
    Default                                  : Yes
    Forced                                   : No

    Audio #2
    ID                                       : 3
    Format                                   : AC-3
    Format/Info                              : Audio Coding 3
    Commercial name                          : Dolby Digital
    Codec ID                                 : A_AC3
    Duration                                 : 1 h 46 min
    Bit rate mode                            : Constant
    Bit rate                                 : 192 kb/s
    Channel(s)                               : 2 channels
    Channel layout                           : L R
    Sampling rate                            : 48.0 kHz
    Frame rate                               : 31.250 FPS (1536 SPF)
    Compression mode                         : Lossy
    Stream size                              : 147 MiB (7%)
    Title                                    : english
    Language                                 : English
    Service kind                             : Complete Main
    Default                                  : No
    Forced                                   : No

    Text #1
    ID                                       : 4
    Format                                   : UTF-8
    Codec ID                                 : S_TEXT/UTF8
    Codec ID/Info                            : UTF-8 Plain Text
    Duration                                 : 1 h 41 min
    Bit rate                                 : 36 b/s
    Count of elements                        : 742
    Stream size                              : 27.0 KiB (0%)
    Title                                    : czech
    Language                                 : Czech
    Default                                  : Yes
    Forced                                   : No

    Text #2
    ID                                       : 5
    Format                                   : UTF-8
    Codec ID                                 : S_TEXT/UTF8
    Codec ID/Info                            : UTF-8 Plain Text
    Duration                                 : 1 h 40 min
    Bit rate                                 : 42 b/s
    Count of elements                        : 898
    Stream size                              : 31.6 KiB (0%)
    Title                                    : english
    Language                                 : English
    Default                                  : No
    Forced                                   : No














    MartinZetek, tetrov_cierny, pohee, Rombrt, sssooolllaaa, PetrJaros, Miira, rkabad, šlosy, ferfeckit, Frenk08, flying, teapel, KazatelAK47, Divoch1312, Karel1972, jozef88, dobrosh, tomboodnb, pleskac2020, sgabi8888, Hela007,

    + Pridaj vlastnu verziu tohto torrentu +


    Upozornenie:
    Ziadny zo zobrazených súborov sa nenachádza na tomto serveri. Server slúzi len k síreniu vlastnorucne vytvorených aplikácií, videí, hudby ai. Autori stránok nenesú ziadnu zodpovednost za zverejnené odkazy, komentáre a obsah súborov. Vsetky komentáre, odkazy, súbory ktoré by svojou povahou mohli byt v rozpore zo zákonmi sem vkladáte na vlastnú zodpovednost. Autori stránok si vyhradzujú právo cenzúry odkazov, komentárov príp. súborov, ktoré by svojou povahou mohli byt v rozpore zo zákonmi a dobrými mravmi. Dodrzujte pravidlá!





    1
    evik1
    Ratio 2.18

    Member+

    17/10/2022 18.39.34
    super film fakt ...

    0
    Fosil
    Ratio 0.02

    Clen

    24/03/2022 17.14.27
    Máš k tomu špatnej obrázek. Tenhle je až z pokračování


    --------------
    >> 24/03/2022 17.21.41
    UPLOADER: jo dik za info.. ale zmenit mi už nejde .. zmenil som ho v popisu


    --------------
    >> 25/03/2022 21.49.33
    sssooolllaaa: Nemáte pravdu.


    --------------
    >> 26/03/2022 11.17.31
    UPLOADER: Uloader nemoze zmenit obrazok len admin co už aj urobil....


    Back

    Na serveru se nenalézají zádne soubory. Za odkazy jsou výhradně zodpovědní uzivatelé a návstěvníci tohoto trackeru. Administrátor není zodpovědný za pridaný obsah ani za skody zpusobené uzivateli. Nesmíte pouzívat tuto webovou stránku pro distribuovaní nebo download zádného materiálu pokud nemáte povolení od príslusného vlastníka práv. Uzivatelé jsou zodpovědní za dodrzování těchto pravidel a podmínek. Owner má právo kdykoliv změnit pravidla tohoto trackeru.

    [ Script trval: 0.075 sec. ] - [ GZIP: enabled ]
    Je zhruba 20:48
    memcache

    TOPlist