Tvoj ˙čet nieje VIP.
Preto s˙ tvoje funkcie a možnosti značne obmedzenÚ.
Pre aktivßciu VIP klikni sem.

Warrior Nun / Valecna jeptiska (S01)(1080p)(AVC)(WebDl)(CZ+Multi 5 lang)(MultiSUB) = CSFD 63% | SkTorrent.eu

Cz-SkTorrent open Tracker, na volnÚ zdielanie s˙borov. Pridajte sa k nasej komunite a zÝskajte pristup k tisÝcom torrentov.

  • vysokß rřchlost
  • ˙plne zdarma
  • prevazne Slovenska a Ceska scena
  • ste tu s nami uz 5 rokov - Dakujeme
  • Vitaj Guest (Login) Ako stahovat
    torrenty?
    Torrenty:
    v1 textovß
    v2 obrßzkovß
    Ako sa stat
    Uploaderom
    Online
    Filmy
    Forum
    Pravidlß
    BitTorrent
    klient
    Meno: Heslo:
    Zaregistrovat
    Po zaregistrovanÝ mozte volne stahovat
    Zabudol som heslo

    Warrior Nun / Valecna jeptiska (S01)(1080p)(AVC)(WebDl)(CZ+Multi 5 lang)(MultiSUB) = CSFD 63% Nßzov:Warrior Nun / Valecna jeptiska (S01)(1080p)(AVC)(WebDl)(CZ+Multi 5 lang)(MultiSUB) = CSFD 63% HodnocenÝ:N/A Stiahnut
    Pozriet Online
    Kategˇria:Serißl Velikost:6.0 GB BitTorrent klient
    Pridanř: S˙bory:
    Skontrolovßn:2022-11-20 Peerov:20 (Seed: 19, Leech: 1)
    Zaner:Akcni,Drama,Fantasy Uploader:Uvidis, az ked budes
    VIP
    K˙p nßm Pivo 1,10€

    K˙p nßm Pivo
    Pridaj do zalozky
    Pridaj do zalozky






    [center]





    Movie Name: Warrior Nun (S01)(2020)(Complete)
    IMDb Rating: 6.8/10

    Quality: 1080p (WebDL)
    Language: AAC 2.0 - English , Czech , Germany , Polish , Hungarian
    Subtitles: Multi
    Director: Simon Barry, Agnieszka Smoczy˝ska, Jet Wilkinson, Sarah Walker, Mathias Herndl
    Writers: Simon Barry, David Hayter, Suzanne Keilly, Amy Berg, Sheila Wilson, Matt Bosack
    Genres: Action | Fantasy | Drama |


    After waking up in a morgue, an orphaned teen discovers she now possesses superpowers as the chosen Halo Bearer for a secret sect of demon-hunting nuns.




    [/center]
    Format                                   : MPEG-4
    Format profile                           : Base Media
    Codec ID                                 : isom (isom/iso2/avc1/mp41)
    File size                                : 794 MiB
    Duration                                 : 51 min 17 s
    Overall bit rate mode                    : Variable
    Overall bit rate                         : 2 163 kb/s
    Collection                               : VßleŔnß jepti╣ka
    Season                                   : 1
    Track name                               : «almá46:5
    Description                              : Ava je ze svřch novřch schopnostÝ nad╣enß aátrochu zmatenß. Kdyż hrozÝ, że jÝ p°erostou p°es hlavu, objevÝ se jako zßzrakem pomoc.
    Writing application                      : Lavf58.76.100
    Cover                                    : Yes
    Part_ID                                  : 1

    Video
    ID                                       : 1
    Format                                   : AVC
    Format/Info                              : Advanced Video Codec
    Format profile                           : High@L4
    Format settings                          : CABAC / 4 Ref Frames
    Format settings, CABAC                   : Yes
    Format settings, Reference frames        : 4 frames
    Codec ID                                 : avc1
    Codec ID/Info                            : Advanced Video Coding
    Duration                                 : 51 min 16 s
    Bit rate mode                            : Variable
    Bit rate                                 : 1 513 kb/s
    Maximum bit rate                         : 20.0 Mb/s
    Width                                    : 1 920 pixels
    Height                                   : 1 080 pixels
    Display aspect ratio                     : 16:9
    Frame rate mode                          : Constant
    Frame rate                               : 23.976 (24000/1001) FPS
    Color space                              : YUV
    Chroma subsampling                       : 4:2:0
    Bit depth                                : 8 bits
    Scan type                                : Progressive
    Bits/(Pixel*Frame)                       : 0.030
    Stream size                              : 555 MiB (70%)
    Title                                    : ?@GPAC2.1-DEV-rev6242-g07e35adfb-HEAD
    Writing library                          : x264 core 148 r2727 7d026e8
    Encoding settings                        : cabac=1 / ref=4 / deblock=1:0:0 / analyse=0x3:0x111 / me=umh / subme=10 / psy=1 / psy_rd=1.00:0.00 / mixed_ref=1 / me_range=120 / chroma_me=1 / trellis=2 / 8x8dct=1 / cqm=0 / deadzone=21,11 / fast_pskip=1 / chroma_qp_offset=-2 / threads=8 / lookahead_threads=2 / sliced_threads=0 / nr=0 / decimate=1 / interlaced=0 / bluray_compat=0 / stitchable=1 / constrained_intra=0 / bframes=16 / b_pyramid=2 / b_adapt=2 / b_bias=0 / direct=3 / weightb=1 / open_gop=0 / weightp=2 / keyint=240 / keyint_min=121 / scenecut=0 / intra_refresh=0 / rc_lookahead=240 / rc=crf / mbtree=1 / crf=21.0 / qcomp=0.50 / qpmin=6 / qpmax=51 / qpstep=4 / vbv_maxrate=20000 / vbv_bufsize=25000 / crf_max=0.0 / nal_hrd=vbr / filler=0 / ip_ratio=1.40 / aq=1:0.80
    Codec configuration box                  : avcC

    Audio #1
    ID                                       : 3
    Format                                   : AAC LC SBR
    Format/Info                              : Advanced Audio Codec Low Complexity with Spectral Band Replication
    Commercial name                          : HE-AAC
    Format settings                          : Explicit
    Codec ID                                 : mp4a-40-2
    Duration                                 : 51 min 17 s
    Bit rate mode                            : Constant
    Bit rate                                 : 128 kb/s
    Channel(s)                               : 2 channels
    Channel layout                           : L R
    Sampling rate                            : 48.0 kHz
    Frame rate                               : 23.438 FPS (2048 SPF)
    Compression mode                         : Lossy
    Stream size                              : 47.0 MiB (6%)
    Title                                    : Ŕe╣tina
    Language                                 : Czech
    Default                                  : Yes
    Alternate group                          : 2

    Audio #2
    ID                                       : 4
    Format                                   : AAC LC SBR
    Format/Info                              : Advanced Audio Codec Low Complexity with Spectral Band Replication
    Commercial name                          : HE-AAC
    Format settings                          : Explicit
    Codec ID                                 : mp4a-40-2
    Duration                                 : 51 min 17 s
    Bit rate mode                            : Constant
    Bit rate                                 : 128 kb/s
    Channel(s)                               : 2 channels
    Channel layout                           : L R
    Sampling rate                            : 48.0 kHz
    Frame rate                               : 23.438 FPS (2048 SPF)
    Compression mode                         : Lossy
    Stream size                              : 47.0 MiB (6%)
    Title                                    : nýmŔina
    Language                                 : German
    Default                                  : Yes
    Alternate group                          : 3

    Audio #3
    ID                                       : 5
    Format                                   : AAC LC SBR
    Format/Info                              : Advanced Audio Codec Low Complexity with Spectral Band Replication
    Commercial name                          : HE-AAC
    Format settings                          : Explicit
    Codec ID                                 : mp4a-40-2
    Duration                                 : 51 min 17 s
    Bit rate mode                            : Constant
    Bit rate                                 : 128 kb/s
    Channel(s)                               : 2 channels
    Channel layout                           : L R
    Sampling rate                            : 48.0 kHz
    Frame rate                               : 23.438 FPS (2048 SPF)
    Compression mode                         : Lossy
    Stream size                              : 47.0 MiB (6%)
    Title                                    : angliŔtina [Originßl]
    Language                                 : English
    Default                                  : Yes
    Alternate group                          : 4

    Audio #4
    ID                                       : 6
    Format                                   : AAC LC SBR
    Format/Info                              : Advanced Audio Codec Low Complexity with Spectral Band Replication
    Commercial name                          : HE-AAC
    Format settings                          : Explicit
    Codec ID                                 : mp4a-40-2
    Duration                                 : 51 min 17 s
    Bit rate mode                            : Constant
    Bit rate                                 : 128 kb/s
    Channel(s)                               : 2 channels
    Channel layout                           : L R
    Sampling rate                            : 48.0 kHz
    Frame rate                               : 23.438 FPS (2048 SPF)
    Compression mode                         : Lossy
    Stream size                              : 47.0 MiB (6%)
    Title                                    : ma´ar╣tina
    Language                                 : Hungarian
    Default                                  : Yes
    Alternate group                          : 5

    Audio #5
    ID                                       : 7
    Format                                   : AAC LC SBR
    Format/Info                              : Advanced Audio Codec Low Complexity with Spectral Band Replication
    Commercial name                          : HE-AAC
    Format settings                          : Explicit
    Codec ID                                 : mp4a-40-2
    Duration                                 : 51 min 17 s
    Bit rate mode                            : Constant
    Bit rate                                 : 128 kb/s
    Channel(s)                               : 2 channels
    Channel layout                           : L R
    Sampling rate                            : 48.0 kHz
    Frame rate                               : 23.438 FPS (2048 SPF)
    Compression mode                         : Lossy
    Stream size                              : 47.0 MiB (6%)
    Title                                    : pol╣tina
    Language                                 : Polish
    Default                                  : Yes
    Alternate group                          : 6

    Text #1
    ID                                       : 8
    Format                                   : Timed Text
    Muxing mode                              : sbtl
    Codec ID                                 : tx3g
    Duration                                 : 47 min 33 s
    Bit rate mode                            : Variable
    Bit rate                                 : 52 b/s
    Stream size                              : 18.3 KiB (0%)
    Title                                    : Ŕe╣tina
    Language                                 : Czech
    Default                                  : No
    Forced                                   : No
    Alternate group                          : 7

    Text #2
    ID                                       : 9
    Format                                   : Timed Text
    Muxing mode                              : sbtl
    Codec ID                                 : tx3g
    Duration                                 : 2 min 13 s
    Bit rate mode                            : Variable
    Bit rate                                 : 121 b/s
    Stream size                              : 1.97 KiB (0%)
    Title                                    : Czech [ForcedNarrative]
    Language                                 : Czech
    Default                                  : Yes
    Forced                                   : No
    Alternate group                          : 8

    Text #3
    ID                                       : 10
    Format                                   : Timed Text
    Muxing mode                              : sbtl
    Codec ID                                 : tx3g
    Duration                                 : 50 min 20 s
    Bit rate mode                            : Variable
    Bit rate                                 : 50 b/s
    Stream size                              : 18.4 KiB (0%)
    Title                                    : nýmŔina
    Language                                 : German
    Default                                  : No
    Forced                                   : No
    Alternate group                          : 9

    Text #4
    ID                                       : 11
    Format                                   : Timed Text
    Muxing mode                              : sbtl
    Codec ID                                 : tx3g
    Duration                                 : 4 min 18 s
    Bit rate mode                            : Variable
    Bit rate                                 : 63 b/s
    Stream size                              : 1.99 KiB (0%)
    Title                                    : German [ForcedNarrative]
    Language                                 : German
    Default                                  : No
    Forced                                   : No
    Alternate group                          : 10

    Text #5
    ID                                       : 12
    Format                                   : Timed Text
    Muxing mode                              : sbtl
    Codec ID                                 : tx3g
    Duration                                 : 46 s 297 ms
    Bit rate mode                            : Variable
    Bit rate                                 : 158 b/s
    Stream size                              : 913 Bytes (0%)
    Title                                    : English [ForcedNarrative]
    Language                                 : English
    Default                                  : No
    Forced                                   : No
    Alternate group                          : 11

    Text #6
    ID                                       : 13
    Format                                   : Timed Text
    Muxing mode                              : sbtl
    Codec ID                                 : tx3g
    Duration                                 : 48 min 33 s
    Bit rate mode                            : Variable
    Bit rate                                 : 74 b/s
    Stream size                              : 26.4 KiB (0%)
    Title                                    : angliŔtina [CC]
    Language                                 : English
    Default                                  : No
    Forced                                   : No
    Alternate group                          : 12

    Text #7
    ID                                       : 14
    Format                                   : Timed Text
    Muxing mode                              : sbtl
    Codec ID                                 : tx3g
    Duration                                 : 50 min 20 s
    Bit rate mode                            : Variable
    Bit rate                                 : 49 b/s
    Stream size                              : 18.0 KiB (0%)
    Title                                    : ma´ar╣tina
    Language                                 : Hungarian
    Default                                  : No
    Forced                                   : No
    Alternate group                          : 13

    Text #8
    ID                                       : 15
    Format                                   : Timed Text
    Muxing mode                              : sbtl
    Codec ID                                 : tx3g
    Duration                                 : 4 min 31 s
    Bit rate mode                            : Variable
    Bit rate                                 : 60 b/s
    Stream size                              : 2.00 KiB (0%)
    Title                                    : Hungarian [ForcedNarrative]
    Language                                 : Hungarian
    Default                                  : No
    Forced                                   : No
    Alternate group                          : 14

    Text #9
    ID                                       : 16
    Format                                   : Timed Text
    Muxing mode                              : sbtl
    Codec ID                                 : tx3g
    Duration                                 : 50 min 20 s
    Bit rate mode                            : Variable
    Bit rate                                 : 48 b/s
    Stream size                              : 17.9 KiB (0%)
    Title                                    : pol╣tina
    Language                                 : Polish
    Default                                  : No
    Forced                                   : No
    Alternate group                          : 15










    Miira, pohee, alesek2012,

    + Pridaj vlastnu verziu tohto torrentu +


    Upozornenie:
    Ziadny zo zobrazenřch s˙borov sa nenachßdza na tomto serveri. Server sl˙zi len k sÝreniu vlastnorucne vytvorenřch aplikßciÝ, videÝ, hudby ai. Autori strßnok nenes˙ ziadnu zodpovednost za zverejnenÚ odkazy, komentßre a obsah s˙borov. Vsetky komentßre, odkazy, s˙bory ktorÚ by svojou povahou mohli byt v rozpore zo zßkonmi sem vkladßte na vlastn˙ zodpovednost. Autori strßnok si vyhradzuj˙ prßvo cenz˙ry odkazov, komentßrov prÝp. s˙borov, ktorÚ by svojou povahou mohli byt v rozpore zo zßkonmi a dobrřmi mravmi. Dodrzujte pravidlß!





    0
    javrcko
    Ratio 0.6

    Clen

    21/11/2022 19.38.37
    cisto cz ????


    Back

    Na serveru se nenalÚzajÝ zßdne soubory. Za odkazy jsou vřhradný zodpovýdnÝ uzivatelÚ a nßvstývnÝci tohoto trackeru. Administrßtor nenÝ zodpovýdnř za pridanř obsah ani za skody zpusobenÚ uzivateli. NesmÝte pouzÝvat tuto webovou strßnku pro distribuovanÝ nebo download zßdnÚho materißlu pokud nemßte povolenÝ od prÝslusnÚho vlastnÝka prßv. UzivatelÚ jsou zodpovýdnÝ za dodrzovßnÝ týchto pravidel a podmÝnek. Owner mß prßvo kdykoliv zmýnit pravidla tohoto trackeru.

    [ Script trval: 0.030 sec. ] - [ GZIP: enabled ]
    Je zhruba 21:26
    memcache

    TOPlist