Tvoj ˙čet nieje VIP.
Preto s˙ tvoje funkcie a možnosti značne obmedzenÚ.
Pre aktivßciu VIP klikni sem.

Warrior Nun / Valecna jeptiska (S02)(1080p)(AVC)(WebDl)(CZ+Multi 5 lang)(MultiSUB) = CSFD 63% | SkTorrent.eu

Cz-SkTorrent open Tracker, na volnÚ zdielanie s˙borov. Pridajte sa k nasej komunite a zÝskajte pristup k tisÝcom torrentov.

  • vysokß rřchlost
  • ˙plne zdarma
  • prevazne Slovenska a Ceska scena
  • ste tu s nami uz 5 rokov - Dakujeme
  • Vitaj Guest (Login) Ako stahovat
    torrenty?
    Torrenty:
    v1 textovß
    v2 obrßzkovß
    Ako sa stat
    Uploaderom
    Online
    Filmy
    Forum
    Pravidlß
    BitTorrent
    klient
    Meno: Heslo:
    Zaregistrovat
    Po zaregistrovanÝ mozte volne stahovat
    Zabudol som heslo

    Warrior Nun / Valecna jeptiska (S02)(1080p)(AVC)(WebDl)(CZ+Multi 5 lang)(MultiSUB) = CSFD 63% Nßzov:Warrior Nun / Valecna jeptiska (S02)(1080p)(AVC)(WebDl)(CZ+Multi 5 lang)(MultiSUB) = CSFD 63% HodnocenÝ:N/A Stiahnut
    Pozriet Online
    Kategˇria:Serißl Velikost:5.0 GB BitTorrent klient
    Pridanř: S˙bory:
    Skontrolovßn:2022-11-20 Peerov:15 (Seed: 15, Leech: 0)
    Zaner:Akcni,Drama,Fantasy Uploader:Uvidis, az ked budes
    VIP
    K˙p nßm Pivo 1,10€

    K˙p nßm Pivo
    Pridaj do zalozky
    Pridaj do zalozky






    [center]





    Movie Name: Warrior Nun (S02)(2022)(Complete)
    IMDb Rating: 6.8/10

    Quality: 1080p (WebDL)
    Language: AAC 2.0 - English , Czech , Germany , Polish , Hungarian , Ukrainian
    Subtitles: Multi
    Director: Simon Barry, Agnieszka Smoczy˝ska, Jet Wilkinson, Sarah Walker, Mathias Herndl
    Writers: Simon Barry, David Hayter, Suzanne Keilly, Amy Berg, Sheila Wilson, Matt Bosack
    Genres: Action | Fantasy | Drama |


    After waking up in a morgue, an orphaned teen discovers she now possesses superpowers as the chosen Halo Bearer for a secret sect of demon-hunting nuns.




    [/center]
    Format                                   : MPEG-4
    Format profile                           : Base Media
    Codec ID                                 : isom (isom/iso2/avc1/mp41)
    File size                                : 573 MiB
    Duration                                 : 42 min 41 s
    Overall bit rate mode                    : Variable
    Overall bit rate                         : 1 877 kb/s
    Collection                               : VßleŔnß jepti╣ka
    Season                                   : 2
    Track name                               : List Galatskřmá6:4–5
    Description                              : Ava sáBeatrice jdou na výc, hned jak narazÝ na spojence odhodlanÚho sejmout samozvanÚho proroka aájeho oveŔky. Klß╣ter zasßhne stra╣livß tragÚdie.
    Writing application                      : Lavf58.76.100
    Cover                                    : Yes
    Part_ID                                  : 1

    Video
    ID                                       : 1
    Format                                   : AVC
    Format/Info                              : Advanced Video Codec
    Format profile                           : Main@L4
    Format settings                          : CABAC / 3 Ref Frames
    Format settings, CABAC                   : Yes
    Format settings, Reference frames        : 3 frames
    Codec ID                                 : avc1
    Codec ID/Info                            : Advanced Video Coding
    Duration                                 : 42 min 41 s
    Bit rate mode                            : Variable
    Bit rate                                 : 1 224 kb/s
    Nominal bit rate                         : 2 260 kb/s
    Maximum bit rate                         : 3 390 kb/s
    Width                                    : 1 920 pixels
    Height                                   : 1 080 pixels
    Display aspect ratio                     : 16:9
    Frame rate mode                          : Constant
    Frame rate                               : 23.976 (24000/1001) FPS
    Color space                              : YUV
    Chroma subsampling                       : 4:2:0
    Bit depth                                : 8 bits
    Scan type                                : Progressive
    Bits/(Pixel*Frame)                       : 0.025
    Stream size                              : 374 MiB (65%)
    Writing library                          : x264 core 148 r2727 7d026e8
    Encoding settings                        : cabac=1 / ref=3 / deblock=1:0:0 / analyse=0x1:0x111 / me=umh / subme=10 / psy=1 / psy_rd=1.00:0.00 / mixed_ref=1 / me_range=24 / chroma_me=1 / trellis=2 / 8x8dct=0 / cqm=0 / deadzone=21,11 / fast_pskip=1 / chroma_qp_offset=-2 / threads=8 / lookahead_threads=1 / sliced_threads=0 / nr=0 / decimate=1 / interlaced=0 / bluray_compat=0 / stitchable=1 / constrained_intra=0 / bframes=2 / b_pyramid=0 / b_adapt=2 / b_bias=0 / direct=3 / weightb=1 / open_gop=0 / weightp=2 / keyint=250 / keyint_min=23 / scenecut=0 / intra_refresh=0 / rc_lookahead=48 / rc=2pass / mbtree=1 / bitrate=2260 / ratetol=1.0 / qcomp=0.50 / qpmin=6 / qpmax=51 / qpstep=4 / cplxblur=20.0 / qblur=0.5 / vbv_maxrate=3390 / vbv_bufsize=4520 / nal_hrd=vbr / filler=0 / ip_ratio=1.40 / aq=1:1.00
    Codec configuration box                  : avcC

    Audio #1
    ID                                       : 3
    Format                                   : AAC LC SBR
    Format/Info                              : Advanced Audio Codec Low Complexity with Spectral Band Replication
    Commercial name                          : HE-AAC
    Format settings                          : Explicit
    Codec ID                                 : mp4a-40-2
    Duration                                 : 42 min 41 s
    Bit rate mode                            : Constant
    Bit rate                                 : 128 kb/s
    Channel(s)                               : 2 channels
    Channel layout                           : L R
    Sampling rate                            : 48.0 kHz
    Frame rate                               : 23.438 FPS (2048 SPF)
    Compression mode                         : Lossy
    Stream size                              : 39.1 MiB (7%)
    Title                                    : Ŕe╣tina
    Language                                 : Czech
    Default                                  : Yes
    Alternate group                          : 2

    Audio #2
    ID                                       : 4
    Format                                   : AAC LC SBR
    Format/Info                              : Advanced Audio Codec Low Complexity with Spectral Band Replication
    Commercial name                          : HE-AAC
    Format settings                          : Explicit
    Codec ID                                 : mp4a-40-2
    Duration                                 : 42 min 41 s
    Bit rate mode                            : Constant
    Bit rate                                 : 128 kb/s
    Channel(s)                               : 2 channels
    Channel layout                           : L R
    Sampling rate                            : 48.0 kHz
    Frame rate                               : 23.438 FPS (2048 SPF)
    Compression mode                         : Lossy
    Stream size                              : 39.1 MiB (7%)
    Title                                    : nýmŔina
    Language                                 : German
    Default                                  : Yes
    Alternate group                          : 3

    Audio #3
    ID                                       : 5
    Format                                   : AAC LC SBR
    Format/Info                              : Advanced Audio Codec Low Complexity with Spectral Band Replication
    Commercial name                          : HE-AAC
    Format settings                          : Explicit
    Codec ID                                 : mp4a-40-2
    Duration                                 : 42 min 41 s
    Bit rate mode                            : Constant
    Bit rate                                 : 128 kb/s
    Channel(s)                               : 2 channels
    Channel layout                           : L R
    Sampling rate                            : 48.0 kHz
    Frame rate                               : 23.438 FPS (2048 SPF)
    Compression mode                         : Lossy
    Stream size                              : 39.1 MiB (7%)
    Title                                    : angliŔtina [Originßl]
    Language                                 : English
    Default                                  : Yes
    Alternate group                          : 4

    Audio #4
    ID                                       : 6
    Format                                   : AAC LC SBR
    Format/Info                              : Advanced Audio Codec Low Complexity with Spectral Band Replication
    Commercial name                          : HE-AAC
    Format settings                          : Explicit
    Codec ID                                 : mp4a-40-2
    Duration                                 : 42 min 41 s
    Bit rate mode                            : Constant
    Bit rate                                 : 128 kb/s
    Channel(s)                               : 2 channels
    Channel layout                           : L R
    Sampling rate                            : 48.0 kHz
    Frame rate                               : 23.438 FPS (2048 SPF)
    Compression mode                         : Lossy
    Stream size                              : 39.1 MiB (7%)
    Title                                    : ma´ar╣tina
    Language                                 : Hungarian
    Default                                  : Yes
    Alternate group                          : 5

    Audio #5
    ID                                       : 7
    Format                                   : AAC LC SBR
    Format/Info                              : Advanced Audio Codec Low Complexity with Spectral Band Replication
    Commercial name                          : HE-AAC
    Format settings                          : Explicit
    Codec ID                                 : mp4a-40-2
    Duration                                 : 42 min 41 s
    Bit rate mode                            : Constant
    Bit rate                                 : 128 kb/s
    Channel(s)                               : 2 channels
    Channel layout                           : L R
    Sampling rate                            : 48.0 kHz
    Frame rate                               : 23.438 FPS (2048 SPF)
    Compression mode                         : Lossy
    Stream size                              : 39.1 MiB (7%)
    Title                                    : pol╣tina
    Language                                 : Polish
    Default                                  : Yes
    Alternate group                          : 6

    Text #1
    ID                                       : 8
    Format                                   : Timed Text
    Muxing mode                              : sbtl
    Codec ID                                 : tx3g
    Duration                                 : 41 min 20 s
    Bit rate mode                            : Variable
    Bit rate                                 : 63 b/s
    Stream size                              : 19.0 KiB (0%)
    Title                                    : Ŕe╣tina
    Language                                 : Czech
    Default                                  : No
    Forced                                   : No
    Alternate group                          : 7

    Text #2
    ID                                       : 9
    Format                                   : Timed Text
    Muxing mode                              : sbtl
    Codec ID                                 : tx3g
    Duration                                 : 41 min 20 s
    Bit rate mode                            : Variable
    Bit rate                                 : 5 b/s
    Stream size                              : 1.58 KiB (0%)
    Title                                    : Czech [ForcedNarrative]
    Language                                 : Czech
    Default                                  : Yes
    Forced                                   : No
    Alternate group                          : 8

    Text #3
    ID                                       : 10
    Format                                   : Timed Text
    Muxing mode                              : sbtl
    Codec ID                                 : tx3g
    Duration                                 : 41 min 20 s
    Bit rate mode                            : Variable
    Bit rate                                 : 65 b/s
    Stream size                              : 19.5 KiB (0%)
    Title                                    : nýmŔina
    Language                                 : German
    Default                                  : No
    Forced                                   : No
    Alternate group                          : 9

    Text #4
    ID                                       : 11
    Format                                   : Timed Text
    Muxing mode                              : sbtl
    Codec ID                                 : tx3g
    Duration                                 : 41 min 20 s
    Bit rate mode                            : Variable
    Bit rate                                 : 5 b/s
    Stream size                              : 1.44 KiB (0%)
    Title                                    : German [ForcedNarrative]
    Language                                 : German
    Default                                  : No
    Forced                                   : No
    Alternate group                          : 10

    Text #5
    ID                                       : 12
    Format                                   : Timed Text
    Muxing mode                              : sbtl
    Codec ID                                 : tx3g
    Duration                                 : 27 min 9 s
    Bit rate mode                            : Variable
    Bit rate                                 : 8 b/s
    Stream size                              : 1.50 KiB (0%)
    Title                                    : English [ForcedNarrative]
    Language                                 : English
    Default                                  : No
    Forced                                   : No
    Alternate group                          : 11

    Text #6
    ID                                       : 13
    Format                                   : Timed Text
    Muxing mode                              : sbtl
    Codec ID                                 : tx3g
    Duration                                 : 39 min 26 s
    Bit rate mode                            : Variable
    Bit rate                                 : 91 b/s
    Stream size                              : 26.4 KiB (0%)
    Title                                    : angliŔtina [CC]
    Language                                 : English
    Default                                  : No
    Forced                                   : No
    Alternate group                          : 12

    Text #7
    ID                                       : 14
    Format                                   : Timed Text
    Muxing mode                              : sbtl
    Codec ID                                 : tx3g
    Duration                                 : 41 min 20 s
    Bit rate mode                            : Variable
    Bit rate                                 : 63 b/s
    Stream size                              : 19.2 KiB (0%)
    Title                                    : ma´ar╣tina
    Language                                 : Hungarian
    Default                                  : No
    Forced                                   : No
    Alternate group                          : 13

    Text #8
    ID                                       : 15
    Format                                   : Timed Text
    Muxing mode                              : sbtl
    Codec ID                                 : tx3g
    Duration                                 : 41 min 20 s
    Bit rate mode                            : Variable
    Bit rate                                 : 5 b/s
    Stream size                              : 1.59 KiB (0%)
    Title                                    : Hungarian [ForcedNarrative]
    Language                                 : Hungarian
    Default                                  : No
    Forced                                   : No
    Alternate group                          : 14

    Text #9
    ID                                       : 16
    Format                                   : Timed Text
    Muxing mode                              : sbtl
    Codec ID                                 : tx3g
    Duration                                 : 41 min 20 s
    Bit rate mode                            : Variable
    Bit rate                                 : 64 b/s
    Stream size                              : 19.5 KiB (0%)
    Title                                    : pol╣tina
    Language                                 : Polish
    Default                                  : No
    Forced                                   : No
    Alternate group                          : 15










    pohee, Nightroad, alesek2012, luky76,

    + Pridaj vlastnu verziu tohto torrentu +


    Upozornenie:
    Ziadny zo zobrazenřch s˙borov sa nenachßdza na tomto serveri. Server sl˙zi len k sÝreniu vlastnorucne vytvorenřch aplikßciÝ, videÝ, hudby ai. Autori strßnok nenes˙ ziadnu zodpovednost za zverejnenÚ odkazy, komentßre a obsah s˙borov. Vsetky komentßre, odkazy, s˙bory ktorÚ by svojou povahou mohli byt v rozpore zo zßkonmi sem vkladßte na vlastn˙ zodpovednost. Autori strßnok si vyhradzuj˙ prßvo cenz˙ry odkazov, komentßrov prÝp. s˙borov, ktorÚ by svojou povahou mohli byt v rozpore zo zßkonmi a dobrřmi mravmi. Dodrzujte pravidlß!





    0
    Vitb2020
    Ratio 58.89

    Member+

    21/11/2022 03.45.56
    Language: Ukrainian tu nenÝ, kde je?


    --------------
    >> 21/11/2022 22.59.07
    kafoun:


    Back

    Na serveru se nenalÚzajÝ zßdne soubory. Za odkazy jsou vřhradný zodpovýdnÝ uzivatelÚ a nßvstývnÝci tohoto trackeru. Administrßtor nenÝ zodpovýdnř za pridanř obsah ani za skody zpusobenÚ uzivateli. NesmÝte pouzÝvat tuto webovou strßnku pro distribuovanÝ nebo download zßdnÚho materißlu pokud nemßte povolenÝ od prÝslusnÚho vlastnÝka prßv. UzivatelÚ jsou zodpovýdnÝ za dodrzovßnÝ týchto pravidel a podmÝnek. Owner mß prßvo kdykoliv zmýnit pravidla tohoto trackeru.

    [ Script trval: 0.046 sec. ] - [ GZIP: enabled ]
    Je zhruba 21:57
    memcache

    TOPlist