Tvoj účet nieje VIP.
Preto sú tvoje funkcie a možnosti značne obmedzené.
Pre aktiváciu VIP klikni sem.

Winnova Raynor - Bourlive ticho (Dana Cerna)2020(10h36m) | SkTorrent.eu

Cz-SkTorrent open Tracker, na volné zdieľanie súborov. Pridajte sa k našej komunite a získajte prístup k tisícom torrentov.

  • vysoká rýchlosť
  • úplne zdarma
  • prevažne Slovenská a Česká scéna
  • ste tu s nami už 10 rokov - Ďakujeme
  • Vitaj Guest (Login) Ako stahovat
    torrenty?
    Torrenty:
    v1 textová
    v2 obrázková
    Ako sa stat
    Uploaderom
    Online
    Filmy
    Forum
    Pravidlá
    SkTSocial
    BitTorrent
    klient
    Meno: Heslo:
    Zaregistrovat
    Po zaregistrovaní mozte volne stahovat
    Zabudol som heslo

    Winnova Raynor - Bourlive ticho (Dana Cerna)2020(10h36m) Názov:Winnova Raynor - Bourlive ticho (Dana Cerna)2020(10h36m) Hodnocení: Stiahnut
    Pozriet Online
    Kategória:Mluvené slovo - Velikost:316.0 MB BitTorrent klient
    Pridaný: Súbory:
    Skontrolován:2023-05-26 Peerov:6 (Seed: 6, Leech: 0)
    Zaner: Uploader:Uvidis, az ked budes
    VIP
    Kúp nám Pivo 1,10€

    Kúp nám Pivo
    Pridaj do zalozky
    Pridaj do zalozky





    UKÁZKA






    Winnová Raynor

    ଘ( ͡° ͜ʖ ͡°)  ( • ) ( • )-----(≖_≖)

    Bouřlivé ticho


    čas: (10h36m) L.P 2020
    účinkují: (Dana Černá)
    Detektivky, Novely, povídky, jiné čtivo a nebezpečné deviace










    Hlavní
    Celý název a cesta                       : D:\audio\Winnová Raynor - Bouřlivé ticho (Dana Černá)2020(10h36m)\05 - Duvera.mp3
    Formát                                   : MPEG-4
    Format profile                           : Base Media / Version 2
    Codec ID                                 : mp42 (mp42/isom)
    Velikost souboru                         : 18,2 MiB
    Duration                                 : 37 min 55 s
    Overall bit rate mode                    : Variable
    Celkový BitRate                          : 67,2 kb/s
    Album                                    : Bourlive_ticho
    Album/Performer                          : Dana Cerna
    Název stopy                              : Duvera
    Název stopy/Pozice                       : 5
    Performer                                : Raynor Winnova
    žánr                                     : Audiobook
    ContentType                              : Music
    Recorded date                            : 2022
    Encoded date                             : 2023-04-18 15:09:06 UTC
    Tagged date                              : 2023-04-18 15:09:50 UTC
    Použitý software                         : fre:ac v1.1.7
    Copyright                                : KAZDA
    Obal                                     : Yes
    FileExtension_Invalid                    : braw mov mp4 m4v m4a m4b m4p m4r 3ga 3gpa 3gpp 3gp 3gpp2 3g2 k3g jpm jpx mqv ismv isma ismt f4a f4b f4v

    Audio
    ID                                       : 1
    Formát                                   : AAC LC SBR PS
    Formát/Info                              : Advanced Audio Codec Low Complexity with Spectral Band Replication and Parametric Stereo
    Commercial name                          : HE-AACv2
    Format settings                          : Explicit
    Codec ID                                 : mp4a-40-2
    Duration                                 : 37 min 55 s
    Bit rate mode                            : Variable
    Bit rate                                 : 64,0 kb/s
    Maximum bit rate                         : 65,8 kb/s
    Kanál(y)                                 : 2 kanály
    Channel layout                           : M
    Sampling rate                            : 44,1 kHz
    Frame rate                               : 21,533 FPS (2048 SPF)
    Compression mode                         : Lossy
    Stream size                              : 17,4 MiB (95%)
    Encoded date                             : 2023-04-18 15:09:06 UTC
    Tagged date                              : 2023-04-18 15:09:50 UTC



    Formát                                      :mp3
    Bit rate mode                             : Variable
    Bit rate                                      : 55 kb/s
    Kanál(y)                                    : 2 kanály
    Sampling rate                            : 44,1 kHz




    Hlavní
    Celý název a cesta                       : D:\audio\Winnová Raynor - Bouřlivé ticho (Dana Černá)2020(10h36m)\05 - Duvera.m4a
    Formát                                   : MPEG-4
    Format profile                           : Base Media / Version 2
    Codec ID                                 : mp42 (mp42/isom)
    Velikost souboru                         : 18,2 MiB
    Duration                                 : 37 min 55 s
    Overall bit rate mode                    : Variable
    Celkový BitRate                          : 67,2 kb/s
    Album                                    : Bourlive_ticho
    Album/Performer                          : Dana Cerna
    Název stopy                              : Duvera
    Název stopy/Pozice                       : 5
    Performer                                : Raynor Winnova
    žánr                                     : Audiobook
    ContentType                              : Music
    Recorded date                            : 2022
    Encoded date                             : 2023-04-18 15:09:06 UTC
    Tagged date                              : 2023-04-18 15:09:50 UTC
    Použitý software                         : fre:ac v1.1.7
    Copyright                                : KAZDA
    Obal                                     : Yes

    Audio
    ID                                       : 1
    Formát                                   : AAC LC SBR PS
    Formát/Info                              : Advanced Audio Codec Low Complexity with Spectral Band Replication and Parametric Stereo
    Commercial name                          : HE-AACv2
    Format settings                          : Explicit
    Codec ID                                 : mp4a-40-2
    Duration                                 : 37 min 55 s
    Bit rate mode                            : Variable
    Bit rate                                 : 64,0 kb/s
    Maximum bit rate                         : 65,8 kb/s
    Kanál(y)                                 : 2 kanály
    Channel layout                           : M
    Sampling rate                            : 44,1 kHz
    Frame rate                               : 21,533 FPS (2048 SPF)
    Compression mode                         : Lossy
    Stream size                              : 17,4 MiB (95%)
    Encoded date                             : 2023-04-18 15:09:06 UTC
    Tagged date                              : 2023-04-18 15:09:50 UTC







    http://e-posta.eu/torrent/obrazky/files/Mikimik69/ukazky/CD%C4%8Dko.JPG












    Andy28, fffeero, pepa49, pohee, edudantfranc, marta1, haseki, Zmetek209, luboskopavol, offside, Hebrejec, eduard33, henin7, Antonín31i, Fatface, Jumanji1975,

    + Pridaj vlastnu verziu tohto torrentu +


    Upozornenie:
    Ziadny zo zobrazených súborov sa nenachádza na tomto serveri. Server slúzi len k síreniu vlastnorucne vytvorených aplikácií, videí, hudby ai. Autori stránok nenesú ziadnu zodpovednost za zverejnené odkazy, komentáre a obsah súborov. Vsetky komentáre, odkazy, súbory ktoré by svojou povahou mohli byt v rozpore zo zákonmi sem vkladáte na vlastnú zodpovednost. Autori stránok si vyhradzujú právo cenzúry odkazov, komentárov príp. súborov, ktoré by svojou povahou mohli byt v rozpore zo zákonmi a dobrými mravmi. Dodrzujte pravidlá!


    No comments...


    Back

    Na serveru se nenalézají zádne soubory. Za odkazy jsou výhradně zodpovědní uzivatelé a návstěvníci tohoto trackeru. Administrátor není zodpovědný za pridaný obsah ani za skody zpusobené uzivateli. Nesmíte pouzívat tuto webovou stránku pro distribuovaní nebo download zádného materiálu pokud nemáte povolení od príslusného vlastníka práv. Uzivatelé jsou zodpovědní za dodrzování těchto pravidel a podmínek. Owner má právo kdykoliv změnit pravidla tohoto trackeru.

    [ Script trval: 0.066 sec. ] - [ GZIP: enabled ]
    Je zhruba 16:24
    sql

    TOPlist