Tvoj účet nieje VIP.
Preto sú tvoje funkcie a možnosti značne obmedzené.
Pre aktiváciu VIP klikni sem.

XXX Porn / Rychly prachy / Public Agent Collection (2010-2021)(30 Movies)(Pack 1)(EN) | SkTorrent.eu

Cz-SkTorrent open Tracker, na volné zdielanie súborov. Pridajte sa k nasej komunite a získajte pristup k tisícom torrentov.

  • vysoká rýchlost
  • úplne zdarma
  • prevazne Slovenska a Ceska scena
  • ste tu s nami uz 5 rokov - Dakujeme
  • Vitaj Guest (Login) Ako stahovat
    torrenty?
    Torrenty:
    v1 textová
    v2 obrázková
    v3 online filmy
    Ako sa stat
    Uploaderom
    Online
    Filmy
    Forum
    Pravidlá
    BitTorrent
    klient
    Meno: Heslo:
    Zaregistrovat
    Po zaregistrovaní mozte volne stahovat
    Zabudol som heslo

    Torrent's details
    XXX Porn / Rychly prachy / Public Agent  Collection (2010-2021)(30 Movies)(Pack 1)(EN) Názov:XXX Porn / Rychly prachy / Public Agent Collection (2010-2021)(30 Movies)(Pack 1)(EN) Hodnocení: Stiahnut
    Pozriet Online
    Kategória:xXx Velikost:6.7 GB BitTorrent klient
    Pridaný: Súbory:
    Skontrolován:2021-07-25 Peerov:21 (Seed: 21, Leech: 0)
    Zaner:Eroticky,Kratkometrazni,Reality-TV Uploader:Uvidis, az ked budes
    VIP
    Kúp nám Pivo 1,10€

    Kúp nám Pivo
    Podporte nas na Facebooku !
    Pridaj do zalozky
    Pridaj do zalozky







    Rychly prachy - Public Agent Collection (2010-2021)
    (30 Movies)(Pack 1) Webrip - Púvodní dabing
    (Zbierka 500 movies HD/SD) - Jeden Pack cca 30 movies

                   










    Zoznam :
    Agata si vysukala hodne penizek za SEX.avi 247 MB
    Apolonia.avi 1 GB
    Anny si odsuka krasne penize za SEX.mp4 248 MB
    Denisa jma rada SEX tak jde aj za prachy.mp4 36 MB
    I Know That Girl - Stella Bank Cash and SEX.mp4 241 MB
    Jana ide sulozit za penize v prirode.mp4 390 MB
    kočka podvede přítele s agentem za peníze.mp4 96 MB
    Mladucka a neskusena Denisa.mp4 509 MB
    Adela ide *censored* za penizky.mp4 127 MB
    Aidra and Bianca.mp4 256 MB
    Aj v portugalsku sukaju holciny za penize.mp4 184 MB
    American Blonde Takes Cash For Sex.mp4 289 MB
    Angela vo Wiedni prca za prachy a libi se ji to..mp4 194 MB
    Angelina rada SEX za penize.mp4 162 MB
    Anina sousta za prachy.mp4 199 MB
    Apolonia Lapiedra Fucked on Stairs as Boyfriend Waits.mp4 249 MB
    Asian babe Rae lil Black fucks for cash.mp4 106 MB
    Aylin si vysukala prachy za SEX.mp4 132 MB
    Barbie se necha zlakat na SEX.mp4 367 MB
    Barmanka Amanda se necha ukecat na SEX za prachy.mp4 51 MB
    Barmanka Mia se necha ukecat na SEX za prachy.mp4 220 MB
    Bianca tvrde vosukana za penize ale ona to rada tak.mp4 105 MB
    Big Boobs Babe bekommt unanst-ndigen Vorschlag.mp4 75 MB
    Big tits Thai lady loves to suck and fuck cock.mp4 57 MB
    Blindfolded Babes Show Oral Skills.mp4 281 MB
    Blondata Katrin je vosukana za prachy.mp4 162 MB
    Blonde runs from Police after fucking outdoors.mp4 154 MB
    Blonde with clean shaven pussy fucks in the grass.mp4 262 MB
    Blondinecka Alice sa da na SEX za prachy.mp4 97 MB
    Blondinka Laura si to vie uzit aj prasule za SEX.mp4 204 MB





    ...



    Formát                                   : MPEG-4
    Format profile                           : Base Media / Version 2
    Codec ID                                 : mp42 (isom/iso2/avc1/mp41)
    Velikost souboru                         : 509 MiB
    Duration                                 : 33 min 46 s
    Overall bit rate mode                    : Variable
    Celkový BitRate                          : 2 108 kb/s
    Encoded date                             : UTC 2036-02-06 06:28:16
    Tagged date                              : UTC 2036-02-06 06:28:16
    Použitý software                         : HandBrake 0.10.2 2015060900

    Video
    ID                                       : 1
    Formát                                   : AVC
    Formát/Info                              : Advanced Video Codec
    Format profile                           : Main@L3.1
    Format settings                          : CABAC / 4 Ref Frames
    Format settings, CABAC                   : Ano
    Format settings, Reference frames        : 4 frames
    Codec ID                                 : avc1
    Codec ID/Info                            : Advanced Video Coding
    Duration                                 : 33 min 46 s
    Bit rate                                 : 2 000 kb/s
    Šířka                                    : 1 280pixely
    Výška                                    : 720pixely
    Poměr stran                              : 16:9
    Frame rate mode                          : Constant
    Frame rate                               : 25,000 FPS
    Color space                              : YUV
    Chroma subsampling                       : 4:2:0
    Bit depth                                : 8 bits
    Scan type                                : Progressive
    Bits/(Pixel*Frame)                       : 0.087
    Stream size                              : 481 MiB (94%)
    Enkódoval                                : x264 core 142 r2479 dd79a61
    Nastavení enkoderu                       : cabac=1 / ref=1 / deblock=1:0:0 / analyse=0x1:0x111 / me=hex / subme=2 / psy=1 / psy_rd=1.00:0.00 / mixed_ref=0 / me_range=16 / chroma_me=1 / trellis=0 / 8x8dct=0 / cqm=0 / deadzone=21,11 / fast_pskip=1 / chroma_qp_offset=0 / threads=6 / lookahead_threads=2 / sliced_threads=0 / nr=0 / decimate=1 / interlaced=0 / bluray_compat=0 / constrained_intra=0 / bframes=3 / b_pyramid=2 / b_adapt=1 / b_bias=0 / direct=1 / weightb=1 / open_gop=0 / weightp=1 / keyint=250 / keyint_min=25 / scenecut=40 / intra_refresh=0 / rc_lookahead=10 / rc=abr / mbtree=1 / bitrate=2000 / ratetol=1.0 / qcomp=0.60 / qpmin=0 / qpmax=69 / qpstep=4 / ip_ratio=1.40 / aq=1:1.00
    Encoded date                             : UTC 2036-02-06 06:28:16
    Tagged date                              : UTC 2036-02-06 06:28:16
    Color range                              : Limited
    Color primaries                          : BT.709
    Transfer characteristics                 : BT.709
    Matrix coefficients                      : BT.709
    Codec configuration box                  : avcC

    Audio
    ID                                       : 2
    Formát                                   : AAC LC
    Formát/Info                              : Advanced Audio Codec Low Complexity
    Codec ID                                 : mp4a-40-2
    Duration                                 : 33 min 46 s
    Bit rate mode                            : Variable
    Bit rate                                 : 112 kb/s
    Kanál(y)                                 : 2 kanály
    Channel layout                           : L R
    Sampling rate                            : 48,0 kHz
    Frame rate                               : 46,875 FPS (1024 SPF)
    Compression mode                         : Lossy
    Stream size                              : 27,1 MiB (5%)
    Titul                                    : Stereo / Stereo
    Jazyk                                    : English
    Default                                  : Ano
    Alternate group                          : 1
    Encoded date                             : UTC 2036-02-06 06:28:16
    Tagged date                              : UTC 2036-02-06 06:28:16













    Carter83, Nixon88, nerado, Mirou, peeteekadan, jakubnemo, archibald33, Divoch1312, Jarino2341, burda99, martinjc, BVSM, anonymous, 54321,

    + Pridaj vlastnu verziu tohto torrentu +


    Upozornenie:
    Ziadny zo zobrazených súborov sa nenachádza na tomto serveri. Server slúzi len k síreniu vlastnorucne vytvorených aplikácií, videí, hudby ai. Autori stránok nenesú ziadnu zodpovednost za zverejnené odkazy, komentáre a obsah súborov. Vsetky komentáre, odkazy, súbory ktoré by svojou povahou mohli byt v rozpore zo zákonmi sem vkladáte na vlastnú zodpovednost. Autori stránok si vyhradzujú právo cenzúry odkazov, komentárov príp. súborov, ktoré by svojou povahou mohli byt v rozpore zo zákonmi a dobrými mravmi. Dodrzujte pravidlá!


    No comments...


    Back

    Na serveru se nenalézají zádne soubory. Za odkazy jsou výhradně zodpovědní uzivatelé a návstěvníci tohoto trackeru. Administrátor není zodpovědný za pridaný obsah ani za skody zpusobené uzivateli. Rozsirovat stránku nebo její obsah bez souhlasu ownera je zakázano. Nesmíte pouzívat tuto webovou stránku pro distribuovaní nebo download zádného materiálu pokud nemáte povolení od príslusného vlastníka práv. Uzivatelé jsou zodpovědní za dodrzování těchto pravidel a podmínek. Owner má právo kdykoliv změnit pravidla tohoto trackeru.

    [ Script trval: 0.028 sec. ] - [ GZIP: enabled ]
    Je zhruba 08:45
    sql

    TOPlist