Tvoj účet nieje VIP.
Preto sú tvoje funkcie a možnosti značne obmedzené.
Pre aktiváciu VIP klikni sem.

XXX Porn / Rychly prachy / Public Agent Collection (2010-2021)(30 Movies)(Pack 2)(EN) | SkTorrent.eu

Cz-SkTorrent open Tracker, na volné zdielanie súborov. Pridajte sa k nasej komunite a získajte pristup k tisícom torrentov.

  • vysoká rýchlost
  • úplne zdarma
  • prevazne Slovenska a Ceska scena
  • ste tu s nami uz 5 rokov - Dakujeme
  • Vitaj Guest (Login) Ako stahovat
    torrenty?
    Torrenty:
    v1 textová
    v2 obrázková
    v3 online filmy
    Ako sa stat
    Uploaderom
    Online
    Filmy
    Forum
    Pravidlá
    BitTorrent
    klient
    Meno: Heslo:
    Zaregistrovat
    Po zaregistrovaní mozte volne stahovat
    Zabudol som heslo

    Torrent's details
    XXX Porn / Rychly prachy / Public Agent  Collection (2010-2021)(30 Movies)(Pack 2)(EN) Názov:XXX Porn / Rychly prachy / Public Agent Collection (2010-2021)(30 Movies)(Pack 2)(EN) Hodnocení: Stiahnut
    Pozriet Online
    Kategória:xXx Velikost:6.6 GB BitTorrent klient
    Pridaný: Súbory:
    Skontrolován:2021-07-26 Peerov:11 (Seed: 10, Leech: 1)
    Zaner:Eroticky,Kratkometrazni,Reality-TV Uploader:Uvidis, az ked budes
    VIP
    Kúp nám Pivo 1,10€

    Kúp nám Pivo
    Podporte nas na Facebooku !
    Pridaj do zalozky
    Pridaj do zalozky







    Rychly prachy - Public Agent Collection (2010-2021)
    (30 Movies) (Pack 2) Webrip - Púvodní dabing
    (Zbierka 500 movies HD/SD) - Jeden Pack cca 30 movies

                   










    Zoznam :
    Brunetka si vymrda prachy.avi 80 MB
    Blondýnka Jenny se necha ukecat na SEX za penize.mp4 376 MB
    Briana Bandares and her big tits out and having sex on a beach.mp4 273 MB
    Brook osukana za prasule.mp4 128 MB
    Ceska Julia sexuje v parku za prachy.mp4 284 MB
    Ceska z Prachy si jde vy*censored* prachy.mp4 109 MB
    Cipriana vosukana za peniza.mp4 73 MB
    Coco Blue for cash money SEX.mp4 281 MB
    Čeąka s asijskými kořeny oąukaná za prachy.mp4 218 MB
    F Flower - Redhod Sucks Cok Lok A Pro.mp4 232 MB
    Fitneska Casey v posilovni mrda a cuca ptaka za prachy.mp4 199 MB
    Geile Blondinen engen K-rper f-r Geld im Wald gefickt.mp4 113 MB
    Hot 19 Year old Fuck makes Perfect Boobs Bounce.mp4 153 MB
    Hot Czech tourist sucks and fucks agents big cock in stairwell.mp4 231 MB
    Hot Sizzling Blonde Georgie Lyall.mp4 150 MB
    Chanel Rae - Home Alone With a Blonde Amateur SEX.mp4 229 MB
    Charlize si jde za*censored* za penize.mp4 194 MB
    Chiara blondýnka ide na sukacku za prachy.mp4 121 MB
    Chloe amour the Best Cash Money for SEX.mp4 245 MB
    IKnowThatGirl - Fucking in Every Room in the House - Rikki Six.mp4 246 MB
    Jai James in SEX for Money.mp4 250 MB
    Janice se necha oprcat za prachy.mp4 212 MB
    Jenka se nacha oprcat za prachy.mp4 226 MB
    Jessa Rhodes.mp4 262 MB
    Kali taylor si vysuka penize na nove saky.mp4 180 MB
    Kamosky idú za prachy do trojky.mp4 425 MB
    Katrin Tequila is so Sexy he Fucks her twice in one Night.mp4 58 MB
    Kennedy Leigh si rada vydela sukackou.mp4 242 MB
    Krásná brunetka vydělá balík za sex v přírodě.mp4 588 MB
    Kristyna z Prahy ho udela za prachy.avi 297 MB








    Formát                                   : MPEG-4
    Format profile                           : Base Media
    Codec ID                                 : isom (isom/iso2/avc1/mp41)
    Velikost souboru                         : 377 MiB
    Duration                                 : 29 min 59 s
    Celkový BitRate                          : 1 757 kb/s
    Pouľitý software                         : Lavf57.83.100

    Video
    ID                                       : 1
    Formát                                   : AVC
    Formát/Info                              : Advanced Video Codec
    Format profile                           : High@L3.1
    Format settings                          : CABAC / 4 Ref Frames
    Format settings, CABAC                   : Ano
    Format settings, Reference frames        : 4 frames
    Codec ID                                 : avc1
    Codec ID/Info                            : Advanced Video Coding
    Duration                                 : 29 min 59 s
    Bit rate                                 : 1 621 kb/s
    ©ířka                                    : 1 280pixely
    Výąka                                    : 720pixely
    Poměr stran                              : 16:9
    Frame rate mode                          : Constant
    Frame rate                               : 25,000 FPS
    Color space                              : YUV
    Chroma subsampling                       : 4:2:0
    Bit depth                                : 8 bits
    Scan type                                : Progressive
    Bits/(Pixel*Frame)                       : 0.070
    Stream size                              : 348 MiB (92%)
    Enkódoval                                : x264 core 150
    Nastavení enkoderu                       : cabac=1 / ref=3 / deblock=1:0:0 / analyse=0x3:0x113 / me=hex / subme=7 / psy=1 / psy_rd=1.00:0.00 / mixed_ref=1 / me_range=16 / chroma_me=1 / trellis=0 / 8x8dct=1 / cqm=0 / deadzone=21,11 / fast_pskip=1 / chroma_qp_offset=-2 / threads=12 / lookahead_threads=2 / sliced_threads=0 / nr=0 / decimate=1 / interlaced=0 / bluray_compat=0 / constrained_intra=0 / bframes=8 / b_pyramid=2 / b_adapt=1 / b_bias=0 / direct=1 / weightb=1 / open_gop=0 / weightp=2 / keyint=50 / keyint_min=5 / scenecut=40 / intra_refresh=0 / rc_lookahead=40 / rc=crf / mbtree=1 / crf=23.0 / qcomp=0.60 / qpmin=0 / qpmax=69 / qpstep=4 / ip_ratio=1.40 / aq=1:1.00
    Codec configuration box                  : avcC

    Audio
    ID                                       : 2
    Formát                                   : AAC LC
    Formát/Info                              : Advanced Audio Codec Low Complexity
    Codec ID                                 : mp4a-40-2
    Duration                                 : 29 min 59 s
    Duration_LastFrame                       : -1 ms
    Bit rate mode                            : Constant
    Bit rate                                 : 132 kb/s
    Kanál(y)                                 : 2 kanály
    Channel layout                           : L R
    Sampling rate                            : 44,1 kHz
    Frame rate                               : 43,066 FPS (1024 SPF)
    Compression mode                         : Lossy
    Stream size                              : 28,0 MiB (7%)
    Default                                  : Ano
    Alternate group                          : 1













    jakubnemo, archibald33, JJ76, Pavelkosutka, Carter83, Vili33, Many18, gomez79, Divoch1312, Jarino2341, burda99, MartinZetek, martinjc, BVSM, jankoondovcik,

    + Pridaj vlastnu verziu tohto torrentu +


    Upozornenie:
    Ziadny zo zobrazených súborov sa nenachádza na tomto serveri. Server slúzi len k síreniu vlastnorucne vytvorených aplikácií, videí, hudby ai. Autori stránok nenesú ziadnu zodpovednost za zverejnené odkazy, komentáre a obsah súborov. Vsetky komentáre, odkazy, súbory ktoré by svojou povahou mohli byt v rozpore zo zákonmi sem vkladáte na vlastnú zodpovednost. Autori stránok si vyhradzujú právo cenzúry odkazov, komentárov príp. súborov, ktoré by svojou povahou mohli byt v rozpore zo zákonmi a dobrými mravmi. Dodrzujte pravidlá!


    No comments...


    Back

    Na serveru se nenalézají zádne soubory. Za odkazy jsou výhradně zodpovědní uzivatelé a návstěvníci tohoto trackeru. Administrátor není zodpovědný za pridaný obsah ani za skody zpusobené uzivateli. Rozsirovat stránku nebo její obsah bez souhlasu ownera je zakázano. Nesmíte pouzívat tuto webovou stránku pro distribuovaní nebo download zádného materiálu pokud nemáte povolení od príslusného vlastníka práv. Uzivatelé jsou zodpovědní za dodrzování těchto pravidel a podmínek. Owner má právo kdykoliv změnit pravidla tohoto trackeru.

    [ Script trval: 0.029 sec. ] - [ GZIP: enabled ]
    Je zhruba 08:02
    sql

    TOPlist