Tvoj účet nieje VIP.
Preto sú tvoje funkcie a možnosti značne obmedzené.
Pre aktiváciu VIP klikni sem.

XXX Porn / Rychly prachy / Public Agent Collection (2010-2021)(32 Movies)(Pack 4)(EN) | SkTorrent.eu

Cz-SkTorrent open Tracker, na volné zdielanie súborov. Pridajte sa k nasej komunite a získajte pristup k tisícom torrentov.

  • vysoká rýchlost
  • úplne zdarma
  • prevazne Slovenska a Ceska scena
  • ste tu s nami uz 5 rokov - Dakujeme
  • Vitaj Guest (Login) Ako stahovat
    torrenty?
    Torrenty:
    v1 textová
    v2 obrázková
    v3 online filmy
    Ako sa stat
    Uploaderom
    Online
    Filmy
    Forum
    Pravidlá
    BitTorrent
    klient
    Meno: Heslo:
    Zaregistrovat
    Po zaregistrovaní mozte volne stahovat
    Zabudol som heslo

    Torrent's details
    XXX Porn / Rychly prachy / Public Agent Collection (2010-2021)(32 Movies)(Pack 4)(EN) Názov:XXX Porn / Rychly prachy / Public Agent Collection (2010-2021)(32 Movies)(Pack 4)(EN) Hodnocení: Stiahnut
    Pozriet Online
    Kategória:xXx Velikost:8.5 GB BitTorrent klient
    Pridaný: Súbory:
    Skontrolován:2021-08-23 Peerov:17 (Seed: 17, Leech: 0)
    Zaner:Eroticky,Kratkometrazni,Reality-TV Uploader:Uvidis, az ked budes
    VIP
    Kúp nám Pivo 1,10€

    Kúp nám Pivo
    Podporte nas na Facebooku !
    Pridaj do zalozky
    Pridaj do zalozky







    Rychly prachy - Public Agent Collection (2010-2021)
    (32 Movies) (Pack 4) Webrip - Púvodní dabing
    (Zbierka 500 movies HD/SD) - Jeden Pack cca 30 movies

                   










    Zoznam :
    Zuzana to vie ako nik iny a zasuka si za prachy.wmv
    Ztracená cizinka si zaprca za prasule.mp4
    Zrzka s copánky Erika si zaprca na byte za prasule.mp4
    Yenka si zasuka za prachy.avi
    Wylde Suck Dick.mp4
    Veriaca katolicka v Akcii za prachy.avi
    Vacationing Italian babe fucked in car.mp4
    TOP - nadherna mlada  herecka z Prahy Lenka je ukecana na SEX.mkv
    Terezka se necha vo*censored* za prachy.mp4
    Tereza.mp4
    Sweet Ass Babe Hard Fucked Against Fence.mp4
    Soffy vie sko ziskat prachy ....mp4
    Soffie ma rada velkych ptakov na sukacku za prachy.mp4
    Skvela Anita to rada zezadu a dostane aj prasule za SEX ako bonus.mp4
    Skolacka z Moskvy si zasukala za prachy.avi
    Silvie.avi
    Sexy Patricia z Rumunska si to rozda za penize.mp4
    SEXY Hot Dark Haired MILF fucks stranger for his cash.mp4
    Sexy busty cougar housewife Amber Jayne sucks and fucks.mp4
    SEXY brunetka to chce delat aj za prachy.mp4
    SEXY blondýnka z Prahy si to rozdava za penize.mp4
    SEXY blondinka Jenny osoustana na stanici za prachy.mp4
    Plešatá rebelka .mp4
    Mamina Lucka.mp4
    Lucie.mp4
    Daniela.mp4
    Černá sexy kadeřnice.mp4
    Alessandra.mp4
    84. ulovek Praha 2013.wmv
    10-11. ulovek Praha 2010.avi
    Diana.avi
    Saskia.mp4








    Formát                                   : AVI
    Formát/Info                              : Audio Video Interleave
    Velikost souboru                         : 485 MiB
    Duration                                 : 17 min 57 s
    Celkový BitRate                          : 3 778 kb/s
    Použitý software                         : Lavf58.12.100

    Video
    ID                                       : 0
    Formát                                   : xvid
    Codec ID                                 : xvid
    Duration                                 : 17 min 57 s
    Bit rate                                 : 3 637 kb/s
    Šířka                                    : 1 920pixely
    Výška                                    : 1 080pixely
    Poměr stran                              : 16:9
    Frame rate                               : 25,000 FPS
    Scan type                                : Progressive
    Bits/(Pixel*Frame)                       : 0.070
    Stream size                              : 467 MiB (96%)

    Audio
    ID                                       : 1
    Formát                                   : MPEG Audio
    Format version                           : Version 1
    Format profile                           : Layer 3
    Format settings                          : Joint stereo / MS Stereo
    Codec ID                                 : 55
    Codec ID/Hint                            : MP3
    Duration                                 : 17 min 57 s
    Bit rate mode                            : Constant
    Bit rate                                 : 128 kb/s
    Kanál(y)                                 : 2 kanály
    Sampling rate                            : 44,1 kHz
    Compression mode                         : Lossy
    Stream size                              : 16,4 MiB (3%)
    Alignment                                : Aligned on interleaves
    Interleave, duration                     : 26  ms (0,65 video frame)
    Interleave, preload duration             : 26  ms
    Enkódoval                                : LAME3.99.5

    a iné













    martinjc, mirec2855, burda99, Pavelkosutka, BVSM, zdenko85, jankoondovcik, wan1fishman,

    + Pridaj vlastnu verziu tohto torrentu +


    Upozornenie:
    Ziadny zo zobrazených súborov sa nenachádza na tomto serveri. Server slúzi len k síreniu vlastnorucne vytvorených aplikácií, videí, hudby ai. Autori stránok nenesú ziadnu zodpovednost za zverejnené odkazy, komentáre a obsah súborov. Vsetky komentáre, odkazy, súbory ktoré by svojou povahou mohli byt v rozpore zo zákonmi sem vkladáte na vlastnú zodpovednost. Autori stránok si vyhradzujú právo cenzúry odkazov, komentárov príp. súborov, ktoré by svojou povahou mohli byt v rozpore zo zákonmi a dobrými mravmi. Dodrzujte pravidlá!


    No comments...


    Back

    Na serveru se nenalézají zádne soubory. Za odkazy jsou výhradně zodpovědní uzivatelé a návstěvníci tohoto trackeru. Administrátor není zodpovědný za pridaný obsah ani za skody zpusobené uzivateli. Rozsirovat stránku nebo její obsah bez souhlasu ownera je zakázano. Nesmíte pouzívat tuto webovou stránku pro distribuovaní nebo download zádného materiálu pokud nemáte povolení od príslusného vlastníka práv. Uzivatelé jsou zodpovědní za dodrzování těchto pravidel a podmínek. Owner má právo kdykoliv změnit pravidla tohoto trackeru.

    [ Script trval: 1.361 sec. ] - [ GZIP: enabled ]
    Je zhruba 08:18
    memcache

    TOPlist