Tvoj účet nieje VIP.
Preto sú tvoje funkcie a možnosti značne obmedzené.
Pre aktiváciu VIP klikni sem.

XXX Porn / Rychly prachy / Public Agent Collection (2010-2021)(34 Movies)(Pack 3)(EN) | SkTorrent.eu

Cz-SkTorrent open Tracker, na volné zdielanie súborov. Pridajte sa k nasej komunite a získajte pristup k tisícom torrentov.

  • vysoká rýchlost
  • úplne zdarma
  • prevazne Slovenska a Ceska scena
  • ste tu s nami uz 5 rokov - Dakujeme
  • Vitaj Guest (Login) Ako stahovat
    torrenty?
    Torrenty:
    v1 textová
    v2 obrázková
    v3 online filmy
    Ako sa stat
    Uploaderom
    Online
    Filmy
    Forum
    Pravidlá
    BitTorrent
    klient
    Meno: Heslo:
    Zaregistrovat
    Po zaregistrovaní mozte volne stahovat
    Zabudol som heslo

    Torrent's details
    XXX Porn / Rychly prachy / Public Agent Collection (2010-2021)(34 Movies)(Pack 3)(EN) Názov:XXX Porn / Rychly prachy / Public Agent Collection (2010-2021)(34 Movies)(Pack 3)(EN) Hodnocení: Stiahnut
    Pozriet Online
    Kategória:xXx Velikost:9.0 GB BitTorrent klient
    Pridaný: Súbory:
    Skontrolován:2021-08-13 Peerov:17 (Seed: 16, Leech: 1)
    Zaner:Eroticky,Kratkometrazni,Reality-TV,Road-Movie Uploader:Uvidis, az ked budes
    VIP
    Kúp nám Pivo 1,10€

    Kúp nám Pivo
    Podporte nas na Facebooku !
    Pridaj do zalozky
    Pridaj do zalozky







    Rychly prachy - Public Agent Collection (2010-2021)
    (34 Movies) (Pack 3) Webrip - Púvodní dabing
    (Zbierka 500 movies HD/SD) - Jeden Pack cca 30 movies

                   










    Zoznam :
    Blond kundička vymrdaná do análu.mp4
    Krásná osmnáctka si zaprcá s Public Agentem.mp4
    Kristýna blondcka si vysuka prachy za SEX.mp4
    Lana ponuku na SEX za prachy neodmitla.mp4
    Latina cleaner damaris gets horny and boned.mp4
    Latina Nikki Kay Is All About Her Money on The Bang Bus.mp4
    Lexi je vojebana za prasule.mp4
    Lost Tourist Fucked outside under a Bridge.mp4
    Manažerka z Ruska.mp4
    Martina neodola ponuku na SEX za penize.mp4
    Megan Piper.mp4
    Michaela z Prahy se necha vo*censored* za prachy.mp4
    Mira ide do toho, necha se osoustat a dostane aj odmenu.mp4
    Mrdání krásné mladé brunetky.mp4
    Mrdání krásné mladé bruslařky .mp4
    Nadherna SEXY Halona si zamrda aj za prachy len aby to nevedel pritel.mp4
    Nadherna SEXY studentka jde ze školy a zasousta si za prachy.mp4
    Naivní dvojčata sa nechaju prcat za prachy.mp4
    Olprah kadeřnice vosukana za penize.mp4
    OSMNÁCTILETÁ VIRTUÓSKA S KOZAMA Č. 8.mp4
    Petra se da na pichacku za prasule.mp4
    Plešatá rebelka ide hnedka na vec a zapicha si za prasule.mkv
    Rahyn dee for SEX.mp4
    Raunchy tourist Helena Moeller is hungry for cock.mp4
    Realitacka Ava si vie zarobit aj soustanim za penize.mp4
    Rip my nylons and fuck my vagina hard outside.mp4
    Rodinna mrdací konstelace EXTRA.mp4
    Samantha blondate devce sa podujme na SEX za prachy.mp4
    SEXY beautiful Russian Mary Rock hard fucking in short black dress.mp4
    Sexy black haired russian fucked in the woods.mp4
    Sexy blondes public blowjob and hot car bonnet fuck.mp4
    SEXY blondinka Cecilia sousta za penize.mp4
    Teen Dakota Skye má ráda anál.mp4








    Formát                                   : MPEG-4
    Format profile                           : Base Media
    Codec ID                                 : isom (isom/iso2/avc1/mp41)
    Velikost souboru                         : 300 MiB
    Duration                                 : 29 min 4 s
    Celkový BitRate                          : 1 442 kb/s
    Použitý software                         : Lavf57.41.100

    Video
    ID                                       : 1
    Formát                                   : AVC
    Formát/Info                              : Advanced Video Codec
    Format profile                           : High@L3.2
    Format settings                          : CABAC / 4 Ref Frames
    Format settings, CABAC                   : Ano
    Format settings, Reference frames        : 4 frames
    Codec ID                                 : avc1
    Codec ID/Info                            : Advanced Video Coding
    Duration                                 : 29 min 4 s
    Bit rate                                 : 1 307 kb/s
    Šířka                                    : 1 280pixely
    Výška                                    : 720pixely
    Poměr stran                              : 16:9
    Frame rate mode                          : Constant
    Frame rate                               : 25,000 FPS
    Color space                              : YUV
    Chroma subsampling                       : 4:2:0
    Bit depth                                : 8 bits
    Scan type                                : Progressive
    Bits/(Pixel*Frame)                       : 0.057
    Stream size                              : 272 MiB (91%)
    Enkódoval                                : x264 core 148 r2705 3f5ed56
    Nastavení enkoderu                       : cabac=1 / ref=4 / deblock=1:0:0 / analyse=0x3:0x113 / me=umh / subme=8 / psy=1 / psy_rd=1.00:0.00 / mixed_ref=1 / me_range=16 / chroma_me=1 / trellis=1 / 8x8dct=1 / cqm=0 / deadzone=21,11 / fast_pskip=1 / chroma_qp_offset=-2 / threads=22 / lookahead_threads=3 / sliced_threads=0 / nr=0 / decimate=1 / interlaced=0 / bluray_compat=0 / constrained_intra=0 / bframes=3 / b_pyramid=2 / b_adapt=2 / b_bias=0 / direct=3 / weightb=1 / open_gop=0 / weightp=0 / keyint=90 / keyint_min=9 / scenecut=40 / intra_refresh=0 / rc_lookahead=50 / rc=crf / mbtree=1 / crf=26.0 / qcomp=0.60 / qpmin=0 / qpmax=69 / qpstep=4 / vbv_maxrate=1500 / vbv_bufsize=9000 / crf_max=0.0 / nal_hrd=none / filler=0 / ip_ratio=1.40 / aq=1:1.00
    Codec configuration box                  : avcC

    Audio
    ID                                       : 2
    Formát                                   : AAC LC
    Formát/Info                              : Advanced Audio Codec Low Complexity
    Codec ID                                 : mp4a-40-2
    Duration                                 : 29 min 4 s
    Duration_LastFrame                       : 35 ms
    Bit rate mode                            : Constant
    Bit rate                                 : 128 kb/s
    Kanál(y)                                 : 2 kanály
    Channel layout                           : L R
    Sampling rate                            : 44,1 kHz
    Frame rate                               : 43,066 FPS (1024 SPF)
    Compression mode                         : Lossy
    Stream size                              : 26,7 MiB (9%)
    Default                                  : Ano
    Alternate group                          : 1













    Mirou, burda99, mirek1730, suzyyona, archibald33, MartinZetek, tomasdeen, Pavelkosutka, Lampion104, Batoun, Majchos, martinjc, BVSM, DEMOKLES, jankoondovcik, zdenv,

    + Pridaj vlastnu verziu tohto torrentu +


    Upozornenie:
    Ziadny zo zobrazených súborov sa nenachádza na tomto serveri. Server slúzi len k síreniu vlastnorucne vytvorených aplikácií, videí, hudby ai. Autori stránok nenesú ziadnu zodpovednost za zverejnené odkazy, komentáre a obsah súborov. Vsetky komentáre, odkazy, súbory ktoré by svojou povahou mohli byt v rozpore zo zákonmi sem vkladáte na vlastnú zodpovednost. Autori stránok si vyhradzujú právo cenzúry odkazov, komentárov príp. súborov, ktoré by svojou povahou mohli byt v rozpore zo zákonmi a dobrými mravmi. Dodrzujte pravidlá!


    No comments...


    Back

    Na serveru se nenalézají zádne soubory. Za odkazy jsou výhradně zodpovědní uzivatelé a návstěvníci tohoto trackeru. Administrátor není zodpovědný za pridaný obsah ani za skody zpusobené uzivateli. Rozsirovat stránku nebo její obsah bez souhlasu ownera je zakázano. Nesmíte pouzívat tuto webovou stránku pro distribuovaní nebo download zádného materiálu pokud nemáte povolení od príslusného vlastníka práv. Uzivatelé jsou zodpovědní za dodrzování těchto pravidel a podmínek. Owner má právo kdykoliv změnit pravidla tohoto trackeru.

    [ Script trval: 0.023 sec. ] - [ GZIP: enabled ]
    Je zhruba 08:25
    memcache

    TOPlist