Tvoj účet nieje VIP.
Preto sú tvoje funkcie a možnosti značne obmedzené.
Pre aktiváciu VIP klikni sem.

Xanadu (1980)(Mastered)(Hevc)(1080p)(BluRay)(English-CZ) = CSFD 56% | SkTorrent.eu

Cz-SkTorrent open Tracker, na volné zdielanie súborov. Pridajte sa k nasej komunite a získajte pristup k tisícom torrentov.

  • vysoká rýchlost
  • úplne zdarma
  • prevazne Slovenska a Ceska scena
  • ste tu s nami uz 5 rokov - Dakujeme
  • Vitaj Guest (Login) Ako stahovat
    torrenty?
    Torrenty:
    v1 textová
    v2 obrázková
    v3 online filmy
    Ako sa stat
    Uploaderom
    Online
    Filmy
    Forum
    Pravidlá
    BitTorrent
    klient
    Meno: Heslo:
    Zaregistrovat
    Po zaregistrovaní mozte volne stahovat
    Zabudol som heslo

    Torrent's details
    Xanadu (1980)(Mastered)(Hevc)(1080p)(BluRay)(English-CZ) = CSFD 56% Názov:Xanadu (1980)(Mastered)(Hevc)(1080p)(BluRay)(English-CZ) = CSFD 56% Hodnocení:N/A Stiahnut
    Pozriet Online
    Kategória:Filmy CZ/SK dabing Velikost:1.4 GB BitTorrent klient
    Pridaný: Súbory:
    Skontrolován:2022-04-04 Peerov:2 (Seed: 2, Leech: 0)
    Zaner:Fantasy,Muzikal,Romanticky Uploader:Uvidis, az ked budes
    VIP
    Kúp nám Pivo 1,10€

    Kúp nám Pivo
    Podporte nas na Facebooku !
    Pridaj do zalozky
    Pridaj do zalozky






    [center]





    Movie Name: Xanadu (1980)(FHD)(Mastered)
    IMDb Rating: 5.4/10

    Quality: 1080p (BluRay)
    Language: English (AAC 5.1) Czech (AAC 2.0)
    Subtitles: English/Czech
    Director: Robert Greenwald
    Writers: Richard Christian Danus, Marc Reid Rubel
    Genres: Musical | Romance | Fantasy


    A struggling artist living in Los Angeles meets a girl who may hold the key to his happiness.
    ***
    Olivia Newton-Johnová ako neodolateľná múza umelca v romantickom muzikáli si získala srdcia miliónov mužov na celom svete. Príbeh lásky medzi nebeskou krásavicou a mladým pozemšťanom dokáže vyčarovať z opustenej stavby na periférii, za pomoci starého tanečného majstra, v podaní Geena Kellyho, najúžasnejšie miesto zábavy, spevu a tanca na kolieskových korčuliach. Sonny Malone (Michael Beck), nadaný maliar, sa snaží osamostatniť a konečne túži po práci, ktorá by ho napĺňala. Napriek tomu, že sa takmer celú svoju profesionálnu kariéru musel iba niekomu pripôsobovať a maľovať, čo si iní priali, je nútený opäť zvážiť ponuku svojho bývalého zamestnávateľa, pretože má priveľké finančné výdavky. Majiteľ propagačnej firmy ho okamžite prijme, pretože pracuje rýchlo a kvalitne. Sonny jedného dňa stretne neznámu blondínku na kolieskových korčuliach a tá ho pobozká. Od tej chvíle na ňu nevie zabudnúť. Očarujúcu krásku by veľmi rád spoznal, ale neprezradila mu ani svoje meno. Mladík sa ju snaží nájsť prostredníctvom bilboardu, na ktorom je zvečnená, ale nikto si na ňu nedokáže spomenúť. Od toho dňa sa mu Kira (Olivia Newton-Johnová) ešte niekoľkokrát zjaví, ale vzápätí zmizne. Sonny sa náhodne zoznámi s Dannym McGureom (Gene Kelly), známym hudobníkom na dôchodku. Obaja muži sa čoskoro spriatelia a Danny mu navrhne realizáciu spoločného projektu. Rozhodnú sa otvoriť si vlastný hudobný klub. Sonny sa hľadaním priestorov dlho netrápi, pretože jeho múza Kira ho vyláka na miesto, ktoré bude ideálne pre ich zámer..






    [/center]

    Format                                   : Matroska
    Format version                           : Version 4
    File size                                : 1.43 GiB
    Duration                                 : 1 h 35 min
    Overall bit rate                         : 2 135 kb/s
    Encoded date                             : UTC 2020-08-16 15:04:10
    Writing application                      : mkvmerge v41.0.0 ('Smarra') 64-bit
    Writing library                          : libebml v1.3.9 + libmatroska v1.5.2
    Cover                                    : Yes
    Attachments                              : cover.jpg

    Video
    ID                                       : 1
    Format                                   : HEVC
    Format/Info                              : High Efficiency Video Coding
    Format profile                           : Main 10@L4@Main
    Codec ID                                 : V_MPEGH/ISO/HEVC
    Duration                                 : 1 h 35 min
    Bit rate                                 : 1 801 kb/s
    Width                                    : 1 920 pixels
    Height                                   : 1 040 pixels
    Display aspect ratio                     : 1.85:1
    Frame rate mode                          : Constant
    Frame rate                               : 23.976 (24000/1001) FPS
    Color space                              : YUV
    Chroma subsampling                       : 4:2:0
    Bit depth                                : 10 bits
    Bits/(Pixel*Frame)                       : 0.038
    Stream size                              : 1.21 GiB (84%)
    Writing library                          : x265 1.5+88-0e89af0781ee:[Windows][GCC 4.8.2][64 bit] 16bpp
    Encoding settings                        : wpp / ctu=64 / min-cu-size=8 / max-tu-size=32 / tu-intra-depth=1 / tu-inter-depth=1 / me=2 / subme=3 / merange=44 / no-rect / no-amp / max-merge=3 / temporal-mvp / no-early-skip / rdpenalty=0 / no-tskip / no-tskip-fast / strong-intra-smoothing / no-lossless / no-cu-lossless / no-constrained-intra / no-fast-intra / open-gop / no-temporal-layers / interlace=0 / keyint=250 / min-keyint=23 / scenecut=40 / rc-lookahead=20 / bframes=4 / bframe-bias=0 / b-adapt=2 / ref=3 / weightp / no-weightb / aq-mode=1 / aq-strength=1.00 / cbqpoffs=0 / crqpoffs=0 / rd=3 / psy-rd=0.80 / psy-rdoq=0.00 / signhide / lft / no-sao / no-sao-non-deblock / b-pyramid / cutree / rc=2 / pass / bitrate=1800 / qcomp=0.80 / qpmin=0 / qpmax=51 / qpstep=4 / cplxblur=20.0 / qblur=0.5 / ipratio=1.40 / pbratio=1.30
    Default                                  : Yes
    Forced                                   : No

    Audio #1
    ID                                       : 2
    Format                                   : AAC LC SBR
    Format/Info                              : Advanced Audio Codec Low Complexity with Spectral Band Replication
    Commercial name                          : HE-AAC
    Format settings                          : Explicit
    Codec ID                                 : A_AAC-2
    Duration                                 : 1 h 35 min
    Bit rate                                 : 225 kb/s
    Channel(s)                               : 6 channels
    Channel layout                           : C L R Ls Rs LFE
    Sampling rate                            : 48.0 kHz
    Frame rate                               : 23.438 FPS (2048 SPF)
    Compression mode                         : Lossy
    Stream size                              : 155 MiB (11%)
    Language                                 : English
    Default                                  : Yes
    Forced                                   : No

    Audio #2
    ID                                       : 3
    Format                                   : AAC LC SBR
    Format/Info                              : Advanced Audio Codec Low Complexity with Spectral Band Replication
    Commercial name                          : HE-AAC
    Format settings                          : Explicit
    Codec ID                                 : A_AAC-2
    Duration                                 : 1 h 35 min
    Bit rate                                 : 107 kb/s
    Channel(s)                               : 2 channels
    Channel layout                           : L R
    Sampling rate                            : 48.0 kHz
    Frame rate                               : 23.438 FPS (2048 SPF)
    Compression mode                         : Lossy
    Delay relative to video                  : 1 ms
    Stream size                              : 72.9 MiB (5%)
    Language                                 : Czech
    Default                                  : No
    Forced                                   : No

    Text #1
    ID                                       : 4
    Format                                   : UTF-8
    Codec ID                                 : S_TEXT/UTF8
    Codec ID/Info                            : UTF-8 Plain Text
    Duration                                 : 1 h 30 min
    Bit rate                                 : 39 b/s
    Count of elements                        : 782
    Stream size                              : 26.1 KiB (0%)
    Language                                 : Czech
    Default                                  : Yes
    Forced                                   : No

    Text #2
    ID                                       : 5
    Format                                   : UTF-8
    Codec ID                                 : S_TEXT/UTF8
    Codec ID/Info                            : UTF-8 Plain Text
    Duration                                 : 1 h 31 min
    Bit rate                                 : 66 b/s
    Count of elements                        : 1336
    Stream size                              : 44.4 KiB (0%)
    Language                                 : English
    Default                                  : No
    Forced                                   : No











    666, bigsteven, silveronux, rendll, PetrJaros, gooka58,

    + Pridaj vlastnu verziu tohto torrentu +


    Upozornenie:
    Ziadny zo zobrazených súborov sa nenachádza na tomto serveri. Server slúzi len k síreniu vlastnorucne vytvorených aplikácií, videí, hudby ai. Autori stránok nenesú ziadnu zodpovednost za zverejnené odkazy, komentáre a obsah súborov. Vsetky komentáre, odkazy, súbory ktoré by svojou povahou mohli byt v rozpore zo zákonmi sem vkladáte na vlastnú zodpovednost. Autori stránok si vyhradzujú právo cenzúry odkazov, komentárov príp. súborov, ktoré by svojou povahou mohli byt v rozpore zo zákonmi a dobrými mravmi. Dodrzujte pravidlá!





    0
    silveronux
    Ratio 4.03

    Member+

    05/04/2022 11.33.48
    Prosim ta, ten vtx subor ma aky ucel?


    --------------
    >> 05/04/2022 11.46.30
    UPLOADER: Ziadny, je to len log k tomu JPG...
    a nechcelo sa mi to mazat..


    --------------
    >> 05/04/2022 16.05.11
    margharethe: Zdravím.., silveronux. Pokud zapátráš zjistíš, že se ´´pretošům´´ nechce mazat tento soubor u žádného z jejich torrentů..


    Back

    Na serveru se nenalézají zádne soubory. Za odkazy jsou výhradně zodpovědní uzivatelé a návstěvníci tohoto trackeru. Administrátor není zodpovědný za pridaný obsah ani za skody zpusobené uzivateli. Rozsirovat stránku nebo její obsah bez souhlasu ownera je zakázano. Nesmíte pouzívat tuto webovou stránku pro distribuovaní nebo download zádného materiálu pokud nemáte povolení od príslusného vlastníka práv. Uzivatelé jsou zodpovědní za dodrzování těchto pravidel a podmínek. Owner má právo kdykoliv změnit pravidla tohoto trackeru.

    [ Script trval: 0.021 sec. ] - [ GZIP: enabled ]
    Je zhruba 20:28
    sql

    TOPlist