Tvoj účet nieje VIP.
Preto sú tvoje funkcie a možnosti značne obmedzené.
Pre aktiváciu VIP klikni sem.

Záskok / The Hudsucker Proxy (1994) = CSFD 73% | SkTorrent.eu

Cz-SkTorrent open Tracker, na volné zdieľanie súborov. Pridajte sa k našej komunite a získajte prístup k tisícom torrentov.

  • vysoká rýchlosť
  • úplne zdarma
  • prevažne Slovenská a Česká scéna
  • ste tu s nami už 10 rokov - Ďakujeme
  • Vitaj Guest (Login) Ako stahovat
    torrenty?
    Torrenty:
    v1 textová
    v2 obrázková
    Ako sa stat
    Uploaderom
    Online
    Filmy
    Forum
    Pravidlá
    SkTSocial
    BitTorrent
    klient
    Meno: Heslo:
    Zaregistrovat
    Po zaregistrovaní mozte volne stahovat
    Zabudol som heslo

    Záskok / The Hudsucker Proxy (1994)  = CSFD 73% Názov:Záskok / The Hudsucker Proxy (1994) = CSFD 73% Hodnocení:N/A Stiahnut
    Pozriet Online
    Kategória:Filmy CZ/SK dabing - Velikost:1.8 GB BitTorrent klient
    Pridaný: Súbory:
    Skontrolován:2024-03-31 Peerov:33 (Seed: 33, Leech: 0)
    Zaner:Drama,Fantasy,Komedie Uploader:Uvidis, az ked budes
    VIP
    Kúp nám Pivo 1,10€

    Kúp nám Pivo

    Pridaj do zalozky
    Pridaj do zalozky




    Jazyk: CZ
    Titulky: Ne
    Žáner: Komedie / Drama / Fantasy
    USA / Velká Británie / Německo, 1994, 111 min


    Režie: Joel Coen, Ethan Coen
    Scénář: Ethan Coen, Joel Coen, Sam Raimi
    Kamera: Roger Deakins
    Hudba: Carter Burwell
    Hrají: Tim Robbins, Jennifer Jason Leigh, Paul Newman, Charles Durning, John Mahoney, Jim True-Frost, Bill Cobbs, Bruce Campbell, Joe Grifasi, Peter Gallagher

    Čerstvý absolvent university Norville Barnes přijíždí do New Yorku hledat své štěstí v oblasti obchodu a financí. Ve stejnou dobu, kdy Norville získává místo v podatelně velké společnosti Hudsucker Industries, vrhá se její zakladatel Waring z okna 44. poschodí na chodník... Správní rada panikaří. Hudsuckerova smrt znamená, že jeho podíl na majetku firmy bude nabídnut široké veřejnosti. Pouze jeden člověk zůstává chladným - Sidney J. Mussburger. Má totiž plán - nasadit na místo prezidenta společnosti naprostého imbecila a změnit tak zájmy společnosti na zájmy členů správní rady. Ale kde najít takového troubu, který by vše bez otázek přijal? V tom přichází do místnosti Norville Barnes... (Warner Home Video CZ)
    Format                      : Matroska
    Format version              : Version 4
    File size                   : 1.82 GiB
    Duration                    : 1 h 50 min
    Overall bit rate            : 2 352 kb/s
    Frame rate                  : 23.976 FPS
    Encoded date                : 2016-02-19 13:27:57 UTC
    Writing application         : mkvmerge v8.1.0 ('Psychedelic Postcard') 32bit
    Writing library             : libebml v1.3.1 + libmatroska v1.4.2

    Video
    ID                          : 1
    Format                      : MPEG-4 Visual
    Format profile              : Advanced Simple@L5
    Format settings             : BVOP1 / Custom Matrix
    Format settings, BVOP       : 1
    Format settings, QPel       : No
    Format settings, GMC        : No warppoints
    Format settings, Matrix     : Custom
    Codec ID                    : V_MS/VFW/FOURCC / XVID
    Codec ID/Hint               : XviD
    Duration                    : 1 h 50 min
    Bit rate                    : 2 031 kb/s
    Width                       : 704 pixels
    Height                      : 400 pixels
    Display aspect ratio        : 16:9
    Frame rate mode             : Constant
    Frame rate                  : 23.976 (24000/1001) FPS
    Color space                 : YUV
    Chroma subsampling          : 4:2:0
    Bit depth                   : 8 bits
    Scan type                   : Progressive
    Compression mode            : Lossy
    Bits/(Pixel*Frame)          : 0.301
    Stream size                 : 1.57 GiB (86%)
    Writing library             : XviD 65
    Default                     : Yes
    Forced                      : No

    Audio
    ID                          : 2
    Format                      : AC-3
    Format/Info                 : Audio Coding 3
    Commercial name             : Dolby Digital
    Codec ID                    : A_AC3
    Duration                    : 1 h 50 min
    Bit rate mode               : Constant
    Bit rate                    : 320 kb/s
    Channel(s)                  : 2 channels
    Channel layout              : L R
    Sampling rate               : 48.0 kHz
    Frame rate                  : 31.250 FPS (1536 SPF)
    Compression mode            : Lossy
    Delay relative to video     : 1 s 400 ms
    Stream size                 : 254 MiB (14%)
    Language                    : Czech
    Service kind                : Complete Main
    Default                     : Yes
    Forced                      : No

    https://www.csfd.cz/film/1607-zaskok/prehled/







    bladez, Romkov, teapel, margharethe, xjoni, pohee, Morgain,

    + Pridaj vlastnu verziu tohto torrentu +


    Upozornenie:
    Ziadny zo zobrazených súborov sa nenachádza na tomto serveri. Server slúzi len k síreniu vlastnorucne vytvorených aplikácií, videí, hudby ai. Autori stránok nenesú ziadnu zodpovednost za zverejnené odkazy, komentáre a obsah súborov. Vsetky komentáre, odkazy, súbory ktoré by svojou povahou mohli byt v rozpore zo zákonmi sem vkladáte na vlastnú zodpovednost. Autori stránok si vyhradzujú právo cenzúry odkazov, komentárov príp. súborov, ktoré by svojou povahou mohli byt v rozpore zo zákonmi a dobrými mravmi. Dodrzujte pravidlá!


    No comments...


    Back

    Na serveru se nenalézají zádne soubory. Za odkazy jsou výhradně zodpovědní uzivatelé a návstěvníci tohoto trackeru. Administrátor není zodpovědný za pridaný obsah ani za skody zpusobené uzivateli. Nesmíte pouzívat tuto webovou stránku pro distribuovaní nebo download zádného materiálu pokud nemáte povolení od príslusného vlastníka práv. Uzivatelé jsou zodpovědní za dodrzování těchto pravidel a podmínek. Owner má právo kdykoliv změnit pravidla tohoto trackeru.

    [ Script trval: 0.194 sec. ] - [ GZIP: enabled ]
    Je zhruba 11:09
    sql

    TOPlist