Tvoj účet nieje VIP.
Preto sú tvoje funkcie a možnosti značne obmedzené.
Pre aktiváciu VIP klikni sem.

ZOO 69. dil - Hura do Amazonie! = CSFD 35% | SkTorrent.eu

Cz-SkTorrent open Tracker, na volné zdielanie súborov. Pridajte sa k nasej komunite a získajte pristup k tisícom torrentov.

  • vysoká rýchlost
  • úplne zdarma
  • prevazne Slovenska a Ceska scena
  • ste tu s nami uz 5 rokov - Dakujeme
  • Vitaj Guest (Login) Ako stahovat
    torrenty?
    Torrenty:
    v1 textová
    v2 obrázková
    Ako sa stat
    Uploaderom
    Online
    Filmy
    Forum
    Pravidlá
    BitTorrent
    klient
    Meno: Heslo:
    Zaregistrovat
    Po zaregistrovaní mozte volne stahovat
    Zabudol som heslo

    ZOO 69. dil - Hura do Amazonie! = CSFD 35% Názov:ZOO 69. dil - Hura do Amazonie! = CSFD 35% Hodnocení: Stiahnut
    Pozriet Online
    Kategória:Seriál Velikost:1.0 GB BitTorrent klient
    Pridaný: Súbory:
    Skontrolován:2022-11-17 Peerov:186 (Seed: 186, Leech: 0)
    Zaner:Drama,Rodinny Uploader:Uvidis, az ked budes
    VIP
    Kúp nám Pivo 1,10€

    Kúp nám Pivo
    Pridaj do zalozky
    Pridaj do zalozky




    Jazyk: CZ
    Titulky: Ne
    Rodinný / Drama
    Česko, 2022, (Minutáž: 62–63 min)
    https://www.csfd.cz/film/1086988-zoo/prehled/



    Sid pracuje v zoo jako pomocná síla. Přitom se nachomýtne u dramatické situace u pakoňů a řeší krádež papouščích vajec. Ředitelka Roklová řeší kromě pracovních problémů také narušený vztah s mladším synem Vojtou. Viky nastupuje u soudce Kříže na místo chůvy. Petrova snoubenka Markéta ji hned první den podezřívá z krádeže. Hrají M. Pecháčková, E. Burešová, V. Freimanová, Š. Benoni, R. Urban, M. Petřeková, Š. Bilina, P. Nečas, G. Maiello, D. Gránský a další. Režie L. Kodad


    Media Info
    General
    Complete name                  : ZOO (2022)\ZOO 69. díl - Hurá do Amazonie!.mp4
    Format                         : MPEG-4
    Format profile                 : Base Media
    Codec ID                       : isom (isom/iso2/avc1/mp41)
    File size                      : 1.03 GiB
    Duration                       : 59 min 54 s
    Overall bit rate               : 2 450 kb/s
    Writing application            : Lavf59.16.100

    Video
    ID                             : 1
    Format                         : AVC
    Format/Info                    : Advanced Video Codec
    Format profile                 : High@L4.2
    Format settings, CABAC         : Yes
    Format settings, RefFrames     : 4 frames
    Codec ID                       : avc1
    Codec ID/Info                  : Advanced Video Coding
    Duration                       : 59 min 54 s
    Source duration                : 59 min 54 s
    Bit rate                       : 2 152 kb/s
    Maximum bit rate               : 2 500 kb/s
    Width                          : 1 920 pixels
    Height                         : 1 080 pixels
    Display aspect ratio           : 16:9
    Frame rate mode                : Constant
    Frame rate                     : 60.000 FPS
    Color space                    : YUV
    Chroma subsampling             : 4:2:0
    Bit depth                      : 8 bits
    Scan type                      : Progressive
    Bits/(Pixel*Frame)             : 0.017
    Stream size                    : 922 MiB (88%)
    Source stream size             : 960 MiB (91%)
    Writing library                : x264 core 164 r3095 baee400
    Encoding settings              : cabac=1 / ref=1 / deblock=1:0:0 / analyse=0x3:0x113 / me=hex / subme=2 / psy=1 / psy_rd=1.00:0.00 / mixed_ref=0 / me_range=16 / chroma_me=1 / trellis=0 / 8x8dct=1 / cqm=0 / deadzone=21,11 / fast_pskip=1 / chroma_qp_offset=0 / threads=6 / lookahead_threads=2 / sliced_threads=0 / nr=0 / decimate=1 / interlaced=0 / bluray_compat=0 / constrained_intra=0 / bframes=3 / b_pyramid=2 / b_adapt=1 / b_bias=0 / direct=1 / weightb=1 / open_gop=0 / weightp=1 / keyint=250 / keyint_min=25 / scenecut=40 / intra_refresh=0 / rc_lookahead=10 / rc=crf / mbtree=1 / crf=23.0 / qcomp=0.60 / qpmin=0 / qpmax=69 / qpstep=4 / ip_ratio=1.40 / aq=1:1.00
    Color range                    : Limited
    Color primaries                : BT.709
    Transfer characteristics       : BT.709
    Matrix coefficients            : BT.709
    mdhd_Duration                  : 3594600

    Audio
    ID                             : 2
    Format                         : AAC
    Format/Info                    : Advanced Audio Codec
    Format profile                 : LC
    Codec ID                       : 40
    Duration                       : 59 min 54 s
    Bit rate mode                  : Constant
    Bit rate                       : 192 kb/s
    Maximum bit rate               : 196 kb/s
    Channel(s)                     : 2 channels
    Channel positions              : Front: L R
    Sampling rate                  : 48.0 kHz
    Frame rate                     : 46.875 FPS (1024 SPF)
    Compression mode               : Lossy
    Stream size                    : 83.9 MiB (8%)
    Title                          : simple_aac_recording
    Default                        : Yes
    Alternate group                : 1








    666, ladik1919, Devil72cz, umpro, BERUJIZEZADU, teapel, dedula, ferik14, hudrbica, mirek1730, Kolbik_AitD_cz,

    + Pridaj vlastnu verziu tohto torrentu +


    Upozornenie:
    Ziadny zo zobrazených súborov sa nenachádza na tomto serveri. Server slúzi len k síreniu vlastnorucne vytvorených aplikácií, videí, hudby ai. Autori stránok nenesú ziadnu zodpovednost za zverejnené odkazy, komentáre a obsah súborov. Vsetky komentáre, odkazy, súbory ktoré by svojou povahou mohli byt v rozpore zo zákonmi sem vkladáte na vlastnú zodpovednost. Autori stránok si vyhradzujú právo cenzúry odkazov, komentárov príp. súborov, ktoré by svojou povahou mohli byt v rozpore zo zákonmi a dobrými mravmi. Dodrzujte pravidlá!


    No comments...


    Back

    Na serveru se nenalézají zádne soubory. Za odkazy jsou výhradně zodpovědní uzivatelé a návstěvníci tohoto trackeru. Administrátor není zodpovědný za pridaný obsah ani za skody zpusobené uzivateli. Nesmíte pouzívat tuto webovou stránku pro distribuovaní nebo download zádného materiálu pokud nemáte povolení od príslusného vlastníka práv. Uzivatelé jsou zodpovědní za dodrzování těchto pravidel a podmínek. Owner má právo kdykoliv změnit pravidla tohoto trackeru.

    [ Script trval: 0.046 sec. ] - [ GZIP: enabled ]
    Je zhruba 19:38
    memcache

    TOPlist