Tvoj účet nieje VIP.
Preto sú tvoje funkcie a možnosti značne obmedzené.
Pre aktiváciu VIP klikni sem.

ZOO 70. dil - Nejdulezitejsi clovek = CSFD 35% | SkTorrent.eu

Cz-SkTorrent open Tracker, na volné zdielanie súborov. Pridajte sa k nasej komunite a získajte pristup k tisícom torrentov.

  • vysoká rýchlost
  • úplne zdarma
  • prevazne Slovenska a Ceska scena
  • ste tu s nami uz 5 rokov - Dakujeme
  • Vitaj Guest (Login) Ako stahovat
    torrenty?
    Torrenty:
    v1 textová
    v2 obrázková
    Ako sa stat
    Uploaderom
    Online
    Filmy
    Forum
    Pravidlá
    BitTorrent
    klient
    Meno: Heslo:
    Zaregistrovat
    Po zaregistrovaní mozte volne stahovat
    Zabudol som heslo

    ZOO 70. dil - Nejdulezitejsi clovek  = CSFD 35% Názov:ZOO 70. dil - Nejdulezitejsi clovek = CSFD 35% Hodnocení: Stiahnut
    Pozriet Online
    Kategória:Seriál Velikost:1.2 GB BitTorrent klient
    Pridaný: Súbory:
    Skontrolován:2022-11-22 Peerov:86 (Seed: 86, Leech: 0)
    Zaner:Drama,Rodinny Uploader:Uvidis, az ked budes
    VIP
    Kúp nám Pivo 1,10€

    Kúp nám Pivo
    Pridaj do zalozky
    Pridaj do zalozky




    Jazyk: CZ
    Titulky: Ne
    Rodinný / Drama
    Česko, 2022, (Minutáž: 62–63 min)
    https://www.csfd.cz/film/1086988-zoo/prehled/



    Sid pracuje v zoo jako pomocná síla. Přitom se nachomýtne u dramatické situace u pakoňů a řeší krádež papouščích vajec. Ředitelka Roklová řeší kromě pracovních problémů také narušený vztah s mladším synem Vojtou. Viky nastupuje u soudce Kříže na místo chůvy. Petrova snoubenka Markéta ji hned první den podezřívá z krádeže. Hrají M. Pecháčková, E. Burešová, V. Freimanová, Š. Benoni, R. Urban, M. Petřeková, Š. Bilina, P. Nečas, G. Maiello, D. Gránský a další. Režie L. Kodad


    Media Info
    General
    Complete name                  : ZOO (2022)\ZOO 70. díl - Nejdůležitější člověk.mp4
    Format                         : MPEG-4
    Format profile                 : Base Media / Version 2
    Codec ID                       : mp42 (mp41/isom)
    File size                      : 1.24 GiB
    Duration                       : 59 min 34 s
    Overall bit rate               : 2 976 kb/s
    Encoded date                   : UTC 2022-11-22 17:16:46
    Tagged date                    : UTC 2022-11-22 18:22:10

    Video
    ID                             : 1
    Format                         : AVC
    Format/Info                    : Advanced Video Codec
    Format profile                 : Main@L3.2
    Format settings, CABAC         : Yes
    Format settings, RefFrames     : 1 frame
    Format settings, GOP           : M=1, N=30
    Codec ID                       : avc1
    Codec ID/Info                  : Advanced Video Coding
    Duration                       : 59 min 34 s
    Bit rate                       : 2 776 kb/s
    Width                          : 1 280 pixels
    Height                         : 720 pixels
    Display aspect ratio           : 16:9
    Frame rate mode                : Constant
    Frame rate                     : 30.000 FPS
    Color space                    : YUV
    Chroma subsampling             : 4:2:0
    Bit depth                      : 8 bits
    Scan type                      : Progressive
    Bits/(Pixel*Frame)             : 0.100
    Stream size                    : 1.16 GiB (93%)
    Encoded date                   : UTC 2022-11-22 18:17:30
    Tagged date                    : UTC 2022-11-22 18:17:30
    mdhd_Duration                  : 3574467

    Audio
    ID                             : 2
    Format                         : AAC
    Format/Info                    : Advanced Audio Codec
    Format profile                 : LC
    Codec ID                       : 40
    Duration                       : 59 min 34 s
    Bit rate mode                  : Constant
    Bit rate                       : 192 kb/s
    Channel(s)                     : 2 channels
    Channel positions              : Front: L R
    Sampling rate                  : 48.0 kHz
    Frame rate                     : 46.875 FPS (1024 SPF)
    Compression mode               : Lossy
    Stream size                    : 83.1 MiB (7%)
    Encoded date                   : UTC 2022-11-22 18:17:30
    Tagged date                    : UTC 2022-11-22 18:17:30
    mdhd_Duration                  : 3574485








    666, ferik14, ladik1919, umpro, teapel, Devil72cz, dennydj, hudrbica, BERUJIZEZADU, dedula, mirek1730, Kolbik_AitD_cz,

    + Pridaj vlastnu verziu tohto torrentu +


    Upozornenie:
    Ziadny zo zobrazených súborov sa nenachádza na tomto serveri. Server slúzi len k síreniu vlastnorucne vytvorených aplikácií, videí, hudby ai. Autori stránok nenesú ziadnu zodpovednost za zverejnené odkazy, komentáre a obsah súborov. Vsetky komentáre, odkazy, súbory ktoré by svojou povahou mohli byt v rozpore zo zákonmi sem vkladáte na vlastnú zodpovednost. Autori stránok si vyhradzujú právo cenzúry odkazov, komentárov príp. súborov, ktoré by svojou povahou mohli byt v rozpore zo zákonmi a dobrými mravmi. Dodrzujte pravidlá!


    No comments...


    Back

    Na serveru se nenalézají zádne soubory. Za odkazy jsou výhradně zodpovědní uzivatelé a návstěvníci tohoto trackeru. Administrátor není zodpovědný za pridaný obsah ani za skody zpusobené uzivateli. Nesmíte pouzívat tuto webovou stránku pro distribuovaní nebo download zádného materiálu pokud nemáte povolení od príslusného vlastníka práv. Uzivatelé jsou zodpovědní za dodrzování těchto pravidel a podmínek. Owner má právo kdykoliv změnit pravidla tohoto trackeru.

    [ Script trval: 0.046 sec. ] - [ GZIP: enabled ]
    Je zhruba 16:04
    memcache

    TOPlist