Tvoj účet nieje VIP.
Preto sú tvoje funkcie a možnosti značne obmedzené.
Pre aktiváciu VIP klikni sem.

ZOO 83. dil - Sestru nezradim = CSFD 35% | SkTorrent.eu

Cz-SkTorrent open Tracker, na volné zdieľanie súborov. Pridajte sa k našej komunite a získajte prístup k tisícom torrentov.

  • vysoká rýchlosť
  • úplne zdarma
  • prevažne Slovenská a Česká scéna
  • ste tu s nami už 10 rokov - Ďakujeme
  • Vitaj Guest (Login) Ako stahovat
    torrenty?
    Torrenty:
    v1 textová
    v2 obrázková
    Ako sa stat
    Uploaderom
    Online
    Filmy
    Forum
    Pravidlá
    SkTSocial
    BitTorrent
    klient
    Meno: Heslo:
    Zaregistrovat
    Po zaregistrovaní mozte volne stahovat
    Zabudol som heslo

    ZOO 83. dil - Sestru nezradim  = CSFD 35% Názov:ZOO 83. dil - Sestru nezradim = CSFD 35% Hodnocení: Stiahnut
    Pozriet Online
    Kategória:Seriál - Velikost:1.9 GB BitTorrent klient
    Pridaný: Súbory:
    Skontrolován:2023-01-19 Peerov:57 (Seed: 57, Leech: 0)
    Zaner:Drama,Rodinny Uploader:Uvidis, az ked budes
    VIP
    Kúp nám Pivo 1,10€

    Kúp nám Pivo

    Pridaj do zalozky
    Pridaj do zalozky




    Jazyk: CZ
    Titulky: Ne
    Rodinný / Drama
    Česko, 2022, (Minutáž: 62–63 min)
    https://www.csfd.cz/film/1086988-zoo/prehled/



    Sid pracuje v zoo jako pomocná síla. Přitom se nachomýtne u dramatické situace u pakoňů a řeší krádež papouščích vajec. Ředitelka Roklová řeší kromě pracovních problémů také narušený vztah s mladším synem Vojtou. Viky nastupuje u soudce Kříže na místo chůvy. Petrova snoubenka Markéta ji hned první den podezřívá z krádeže. Hrají M. Pecháčková, E. Burešová, V. Freimanová, Š. Benoni, R. Urban, M. Petřeková, Š. Bilina, P. Nečas, G. Maiello, D. Gránský a další. Režie L. Kodad

    Media Info
    General
    Complete name                  : ZOO (2022)\ZOO 83. díl - Sestru nezradim.mp4
    Format                         : MPEG-4
    Format profile                 : Base Media
    Codec ID                       : isom (isom/iso2/avc1/mp41)
    File size                      : 1.90 GiB
    Duration                       : 1 h 0 min
    Overall bit rate               : 4 529 kb/s
    Writing application            : Lavf58.12.100

    Video
    ID                             : 1
    Format                         : AVC
    Format/Info                    : Advanced Video Codec
    Format profile                 : Main@L4.2
    Format settings, CABAC         : Yes
    Format settings, RefFrames     : 1 frame
    Format settings, GOP           : M=1, N=30
    Codec ID                       : avc1
    Codec ID/Info                  : Advanced Video Coding
    Duration                       : 1 h 0 min
    Duration_FirstFrame            : 40 ms
    Bit rate                       : 4 396 kb/s
    Width                          : 1 280 pixels
    Height                         : 720 pixels
    Display aspect ratio           : 16:9
    Frame rate mode                : Constant
    Frame rate                     : 25.000 FPS
    Standard                       : Component
    Color space                    : YUV
    Chroma subsampling             : 4:2:0
    Bit depth                      : 8 bits
    Scan type                      : Progressive
    Bits/(Pixel*Frame)             : 0.191
    Stream size                    : 1.85 GiB (97%)
    Color range                    : Limited

    Audio
    ID                             : 2
    Format                         : AAC
    Format/Info                    : Advanced Audio Codec
    Format profile                 : LC
    Codec ID                       : 40
    Duration                       : 1 h 0 min
    Bit rate mode                  : Constant
    Bit rate                       : 128 kb/s
    Channel(s)                     : 2 channels
    Channel positions              : Front: L R
    Sampling rate                  : 44.1 kHz
    Frame rate                     : 43.066 FPS (1024 SPF)
    Compression mode               : Lossy
    Stream size                    : 55.0 MiB (3%)
    Default                        : Yes
    Alternate group                : 1








    ferik14, Milkyaway, hudrbica, BERUJIZEZADU, umpro, teapel, dedula, Devil72cz, ladik1919, kanar9999, Miroslav_Havlík, bacha70,

    + Pridaj vlastnu verziu tohto torrentu +


    Upozornenie:
    Ziadny zo zobrazených súborov sa nenachádza na tomto serveri. Server slúzi len k síreniu vlastnorucne vytvorených aplikácií, videí, hudby ai. Autori stránok nenesú ziadnu zodpovednost za zverejnené odkazy, komentáre a obsah súborov. Vsetky komentáre, odkazy, súbory ktoré by svojou povahou mohli byt v rozpore zo zákonmi sem vkladáte na vlastnú zodpovednost. Autori stránok si vyhradzujú právo cenzúry odkazov, komentárov príp. súborov, ktoré by svojou povahou mohli byt v rozpore zo zákonmi a dobrými mravmi. Dodrzujte pravidlá!





    0
    Oliver19933
    Ratio 0.25

    Clen

    20/01/2023 12.15.18
    Zdravím seká se to jako minulý díl?


    --------------
    >> 27/01/2023 10.58.12
    FredBrooker: někdy se to seká, někdy je slyšet zvuky z IM - taková klasika, dokonce v některých dílech je natočená celá Windows plocha


    Back

    Na serveru se nenalézají zádne soubory. Za odkazy jsou výhradně zodpovědní uzivatelé a návstěvníci tohoto trackeru. Administrátor není zodpovědný za pridaný obsah ani za skody zpusobené uzivateli. Nesmíte pouzívat tuto webovou stránku pro distribuovaní nebo download zádného materiálu pokud nemáte povolení od príslusného vlastníka práv. Uzivatelé jsou zodpovědní za dodrzování těchto pravidel a podmínek. Owner má právo kdykoliv změnit pravidla tohoto trackeru.

    [ Script trval: 0.076 sec. ] - [ GZIP: enabled ]
    Je zhruba 10:57
    memcache

    TOPlist