Tvoj účet nieje VIP.
Preto sú tvoje funkcie a možnosti značne obmedzené.
Pre aktiváciu VIP klikni sem.

ZOO 84. díl - Vědecká metoda = CSFD 35% | SkTorrent.eu

Cz-SkTorrent open Tracker, na volné zdieľanie súborov. Pridajte sa k našej komunite a získajte prístup k tisícom torrentov.

  • vysoká rýchlosť
  • úplne zdarma
  • prevažne Slovenská a Česká scéna
  • ste tu s nami už 10 rokov - Ďakujeme
  • Vitaj Guest (Login) Ako stahovat
    torrenty?
    Torrenty:
    v1 textová
    v2 obrázková
    Ako sa stat
    Uploaderom
    Online
    Filmy
    Forum
    Pravidlá
    SkTSocial
    BitTorrent
    klient
    Meno: Heslo:
    Zaregistrovat
    Po zaregistrovaní mozte volne stahovat
    Zabudol som heslo

    ZOO 84. díl - Vědecká metoda = CSFD 35% Názov:ZOO 84. díl - Vědecká metoda = CSFD 35% Hodnocení: Stiahnut
    Pozriet Online
    Kategória:Seriál - cz Velikost:614.3 MB BitTorrent klient
    Pridaný: Súbory:
    Skontrolován:2023-01-24 Peerov:165 (Seed: 162, Leech: 3)
    Zaner:Drama,Rodinny Uploader:Uvidis, az ked budes
    VIP
    Kúp nám Pivo 1,10€

    Kúp nám Pivo

    Pridaj do zalozky
    Pridaj do zalozky




    Jazyk: CZ
    Titulky: Ne
    Rodinný / Drama
    Česko, 2022, (Minutáž: 62–63 min)
    https://www.csfd.cz/film/1086988-zoo/prehled/



    Sid pracuje v zoo jako pomocná síla. Přitom se nachomýtne u dramatické situace u pakoňů a řeší krádež papouščích vajec. Ředitelka Roklová řeší kromě pracovních problémů také narušený vztah s mladším synem Vojtou. Viky nastupuje u soudce Kříže na místo chůvy. Petrova snoubenka Markéta ji hned první den podezřívá z krádeže. Hrají M. Pecháčková, E. Burešová, V. Freimanová, Š. Benoni, R. Urban, M. Petřeková, Š. Bilina, P. Nečas, G. Maiello, D. Gránský a další. Režie L. Kodad


    Media Info
    General
    Complete name                  :ZOO (2022)\ZOO 84. díl - Vědecká metoda.mp4
    Format                         : MPEG-4
    Format profile                 : Base Media
    Codec ID                       : isom (isom/iso2/avc1/mp41)
    File size                      : 614 MiB
    Duration                       : 1 h 1 min
    Overall bit rate               : 1 394 kb/s
    Writing application            : Lavf59.35.100

    Video
    ID                             : 1
    Format                         : AVC
    Format/Info                    : Advanced Video Codec
    Format profile                 : High@L3.1
    Format settings, CABAC         : Yes
    Format settings, RefFrames     : 4 frames
    Codec ID                       : avc1
    Codec ID/Info                  : Advanced Video Coding
    Duration                       : 1 h 1 min
    Bit rate                       : 1 259 kb/s
    Width                          : 1 280 pixels
    Height                         : 720 pixels
    Display aspect ratio           : 16:9
    Frame rate mode                : Constant
    Frame rate                     : 25.000 FPS
    Color space                    : YUV
    Chroma subsampling             : 4:2:0
    Bit depth                      : 8 bits
    Scan type                      : Progressive
    Bits/(Pixel*Frame)             : 0.055
    Stream size                    : 555 MiB (90%)
    Writing library                : x264 core 164

    Color range                    : Limited
    Color primaries                : BT.709
    Transfer characteristics       : BT.709
    Matrix coefficients            : BT.709

    Audio
    ID                             : 2
    Format                         : AAC
    Format/Info                    : Advanced Audio Codec
    Format profile                 : LC
    Codec ID                       : 40
    Duration                       : 1 h 1 min
    Source duration                : 1 h 1 min
    Bit rate mode                  : Constant
    Bit rate                       : 128 kb/s
    Channel(s)                     : 2 channels
    Channel positions              : Front: L R
    Sampling rate                  : 44.1 kHz
    Frame rate                     : 43.066 FPS (1024 SPF)
    Compression mode               : Lossy
    Stream size                    : 56.6 MiB (9%)
    Source stream size             : 56.6 MiB (9%)
    Default                        : Yes
    Alternate group                : 1








    Avatop, teapel, BERUJIZEZADU, kanar9999, hudrbica, dedula, ferik14, ladik1919, dennydj, Miroslav_Havlík, Devil72cz, umpro, Martinaix, mirek1730, bacha70, olda,

    + Pridaj vlastnu verziu tohto torrentu +


    Upozornenie:
    Ziadny zo zobrazených súborov sa nenachádza na tomto serveri. Server slúzi len k síreniu vlastnorucne vytvorených aplikácií, videí, hudby ai. Autori stránok nenesú ziadnu zodpovednost za zverejnené odkazy, komentáre a obsah súborov. Vsetky komentáre, odkazy, súbory ktoré by svojou povahou mohli byt v rozpore zo zákonmi sem vkladáte na vlastnú zodpovednost. Autori stránok si vyhradzujú právo cenzúry odkazov, komentárov príp. súborov, ktoré by svojou povahou mohli byt v rozpore zo zákonmi a dobrými mravmi. Dodrzujte pravidlá!





    1
    olda
    Ratio 9.01

    Member+

    01/02/2023 05.27.04
    Zdraví.Budou prosím další díly?Děkuji

    1
    uzbrblesle
    Ratio 2.96

    Member+

    28/01/2023 08.37.20
    byl by prosím další díl


    --------------
    >> 01/02/2023 07.44.38
    FredBrooker: díly 85-86 nejsou na iPrima.cz


    --------------
    >> 01/02/2023 10.08.11
    akuratny: díl 85 už na iprima je.bude i tady?díky


    --------------
    >> 02/02/2023 11.22.43
    FredBrooker: https://prima.iprima.cz/zoo-0


    Back

    Na serveru se nenalézají zádne soubory. Za odkazy jsou výhradně zodpovědní uzivatelé a návstěvníci tohoto trackeru. Administrátor není zodpovědný za pridaný obsah ani za skody zpusobené uzivateli. Nesmíte pouzívat tuto webovou stránku pro distribuovaní nebo download zádného materiálu pokud nemáte povolení od príslusného vlastníka práv. Uzivatelé jsou zodpovědní za dodrzování těchto pravidel a podmínek. Owner má právo kdykoliv změnit pravidla tohoto trackeru.

    [ Script trval: 0.077 sec. ] - [ GZIP: enabled ]
    Je zhruba 20:07
    memcache

    TOPlist