Tvoj účet nieje VIP.
Preto sú tvoje funkcie a možnosti značne obmedzené.
Pre aktiváciu VIP klikni sem.

Za zvuku hudby / The Sound of Music (1965)(50th Anniv.)(Mastered)(Hevc)(1080p)(BluRay)(English-CZ) = CSFD 85% | SkTorrent.eu

Cz-SkTorrent open Tracker, na volné zdielanie súborov. Pridajte sa k nasej komunite a získajte pristup k tisícom torrentov.

  • vysoká rýchlost
  • úplne zdarma
  • prevazne Slovenska a Ceska scena
  • ste tu s nami uz 5 rokov - Dakujeme
  • Vitaj Guest (Login) Ako stahovat
    torrenty?
    Torrenty:
    v1 textová
    v2 obrázková
    v3 online filmy
    Ako sa stat
    Uploaderom
    Online
    Filmy
    Forum
    Pravidlá
    BitTorrent
    klient
    Meno: Heslo:
    Zaregistrovat
    Po zaregistrovaní mozte volne stahovat
    Zabudol som heslo

    Torrent's details
    Za zvuku hudby / The Sound of Music (1965)(50th Anniv.)(Mastered)(Hevc)(1080p)(BluRay)(English-CZ) = CSFD 85% Názov:Za zvuku hudby / The Sound of Music (1965)(50th Anniv.)(Mastered)(Hevc)(1080p)(BluRay)(English-CZ) = CSFD 85% Hodnocení:N/A Stiahnut
    Pozriet Online
    Kategória:Filmy CZ/SK dabing Velikost:2.6 GB BitTorrent klient
    Pridaný: Súbory:
    Skontrolován:2022-04-05 Peerov:0 (Seed: 0, Leech: 0)
    Zaner:Drama,Muzikal,Rodinny Uploader:Uvidis, az ked budes
    VIP
    Kúp nám Pivo 1,10€

    Kúp nám Pivo
    Podporte nas na Facebooku !
    Pridaj do zalozky
    Pridaj do zalozky






    [center]





    Movie Name: The Sound of Music (1965)(50th Anniv.)(Mastered)
    IMDb Rating: 8,1/10

    Quality: 1080p (BluRay)
    Language: English (AAC 5.1) Czech (AAC 2.0)
    Subtitles: English/Czech
    Director: Robert Wise
    Writers: Georg Hurdalek (with the partial use of ideas by) Howard Lindsay (from the stage musical book by) Russel Crouse (from the stage musical book by)
    Genres: Biography | Drama | Family


    A young novitiate is sent by her convent in 1930s Austria to become a governess to the seven children of a widowed naval officer.
    ***
    Mezi mladými novickami salzburského kláštera byste těžko hledali někoho méně vhodného pro poslání jeptišky než je Maria (Julie Andrewsová). Vnímavá a činorodá dívka se totiž (přes veškerou snahu) nedokáže vyrovnat se strohou přísností církevního řádu, čarovná krása alpských velehor ji zajímá mnohem víc než klášterní disciplína. Matka představená (Peggy Woodová), moudrá to žena, si naštěstí ví rady a pošle ji jako guvernantku do rodiny ovdovělého námořního kapitána, t.č. ve výslužbě. Úkol, který má Maria před sebou, ale není snadný ani pro někoho tak temperamentního a kurážného jako je ona.

    Nepřístupný kapitán von Trapp (Christopher Plummer) totiž po smrti manželky řídí celou svou domácnost, vč. sedmi dětí, jako námořní loď. Každý den se skládá převážně z plnění rozkazů a striktního dodržování pravidel, na dětské radovánky nezbývá místo. Navíc si ratolesti vynucují otcovu pozornost tím, že se každé chůvy zbaví, jak nejrychleji to jde. Fantazii mají v tomhle směru skutečně velikou, Maria je v pořadí už dvanáctá pečovatelka.

    Oblíbený muzikál ZA ZVUKŮ HUDBY, dnes označovaný jako 'klasický', byl mimořádně úspěšný už při prvním uvedení do kin v r. 1965, když tehdy překonal všechny kasovní rekordy. Jedná se o téměř tříhodinovou filmovou adaptaci muzikálového hitu z Broadwaye (premiéra 1959). Cesta sentimentálního příběhu na jeviště, resp. filmové plátno byla dosti spletitá. Scénář je založený na knize Howarda Lindsaye a Russela Crousela a tato kniha vznikla pro změnu na motivy autobiografie (1949) skutečné baronky Marii von Trapp (ta se mimochodem ve filmu mihla v komparzu při večírkové scéně). První filmová verze příběhu byla navíc natočena už v r.1956 v Německu (Die Trapp-Familie, pokračování Die Trapp-Familie in Amerika (1958)).

    Radostná, povznášející a místy i dramatická podívaná chytla za srdce i oscarovou porotu, která film nominovala celkem v 10 kategoriích. Muzikál nakonec získal přesně polovinu těchto cenných sošek, vč. prestižních Oscarů za nejlepší film a režii (režiséru a producentovi Robertu Wiseovi tak přibyly další cenné kousky do sbírky, už v r.1961 slavil triumf s WEST SIDE STORY), dále pak za nejlepší zvuk, hudbu a střih. Jedna z neproměněných nominací patřila herečce v hlavní roli, Julii Andrewsové, která už předtím za ztvárnění Marii dostala cenu kritiku Zlatý Glóbus. Jednalo se teprve o její druhý film (za debut MARY POPPINSOVÁ o rok dřív Oscara získala), kterým potvrdila svou pozici muzikálové hvězdy v typově podobné roli guvernantky. Co se týče dalšího hereckého obsazení, malou perličkou pro milovníky muzikálu je fakt, že v menší roli sestry Sofie se tu poprvé před kamerou objevila Marni Nixonová, jejíž hlas zaznamenaly v předešlých letech miliony návštěvníků kin. Nazpívala totiž pěvecká čísla místo Natalie Woodové (WEST SIDE STORY,1961) a Audrey Hepburnové (MY FAIR LADY,1964). Kromě kvalitního hereckého obsazení, chytlavého příběhu plného emocí a dokonale propracovaných hudebních čísel filmu k úspěchu určitě pomohla i kamera, působivě zachycující svěží krásu rakouských Alp. Natáčelo se skutečně v rakouských exteriérech, takže pocit autentičnosti je dokonalý.






    [/center]

    Format                                   : Matroska
    Format version                           : Version 4
    File size                                : 2.63 GiB
    Duration                                 : 2 h 54 min
    Overall bit rate                         : 2 153 kb/s
    Encoded date                             : UTC 2022-02-15 06:46:02
    Writing application                      : mkvmerge v60.0.0 ('Are We Copies?') 64-bit
    Writing library                          : libebml v1.4.2 + libmatroska v1.6.4
    Cover                                    : Yes
    Attachments                              : cover.jpg

    Video
    ID                                       : 1
    Format                                   : HEVC
    Format/Info                              : High Efficiency Video Coding
    Format profile                           : Main 10@L4@Main
    Codec ID                                 : V_MPEGH/ISO/HEVC
    Duration                                 : 2 h 54 min
    Bit rate                                 : 1 800 kb/s
    Width                                    : 1 920 pixels
    Height                                   : 872 pixels
    Display aspect ratio                     : 2.2:1
    Frame rate mode                          : Constant
    Frame rate                               : 23.976 (24000/1001) FPS
    Color space                              : YUV
    Chroma subsampling                       : 4:2:0
    Bit depth                                : 10 bits
    Bits/(Pixel*Frame)                       : 0.045
    Stream size                              : 2.20 GiB (84%)
    Writing library                          : x265 1.5+88-0e89af0781ee:[Windows][GCC 4.8.2][64 bit] 16bpp
    Encoding settings                        : wpp / ctu=64 / min-cu-size=8 / max-tu-size=32 / tu-intra-depth=1 / tu-inter-depth=1 / me=2 / subme=3 / merange=56 / no-rect / no-amp / max-merge=3 / temporal-mvp / no-early-skip / rdpenalty=0 / no-tskip / no-tskip-fast / strong-intra-smoothing / no-lossless / no-cu-lossless / no-constrained-intra / no-fast-intra / open-gop / no-temporal-layers / interlace=0 / keyint=250 / min-keyint=23 / scenecut=40 / rc-lookahead=20 / bframes=4 / bframe-bias=0 / b-adapt=2 / ref=3 / weightp / no-weightb / aq-mode=1 / aq-strength=1.00 / cbqpoffs=0 / crqpoffs=0 / rd=3 / psy-rd=0.60 / psy-rdoq=0.00 / signhide / lft / no-sao / no-sao-non-deblock / b-pyramid / cutree / rc=2 / pass / bitrate=1800 / qcomp=0.60 / qpmin=0 / qpmax=51 / qpstep=4 / cplxblur=20.0 / qblur=0.5 / ipratio=1.40 / pbratio=1.30
    Default                                  : Yes
    Forced                                   : No

    Audio #1
    ID                                       : 2
    Format                                   : AAC LC SBR
    Format/Info                              : Advanced Audio Codec Low Complexity with Spectral Band Replication
    Commercial name                          : HE-AAC
    Format settings                          : Explicit
    Codec ID                                 : A_AAC-2
    Duration                                 : 2 h 54 min
    Bit rate                                 : 224 kb/s
    Channel(s)                               : 6 channels
    Channel layout                           : C L R Ls Rs LFE
    Sampling rate                            : 48.0 kHz
    Frame rate                               : 23.438 FPS (2048 SPF)
    Compression mode                         : Lossy
    Stream size                              : 280 MiB (10%)
    Language                                 : English
    Default                                  : Yes
    Forced                                   : No

    Audio #2
    ID                                       : 3
    Format                                   : AAC LC SBR
    Format/Info                              : Advanced Audio Codec Low Complexity with Spectral Band Replication
    Commercial name                          : HE-AAC
    Format settings                          : Explicit
    Codec ID                                 : A_AAC-2
    Duration                                 : 2 h 54 min
    Bit rate                                 : 62.8 kb/s
    Channel(s)                               : 2 channels
    Channel layout                           : L R
    Sampling rate                            : 48.0 kHz
    Frame rate                               : 23.438 FPS (2048 SPF)
    Compression mode                         : Lossy
    Delay relative to video                  : 31 ms
    Stream size                              : 78.4 MiB (3%)
    Title                                    : Commentary 1
    Language                                 : English
    Default                                  : No
    Forced                                   : No

    Audio #3
    ID                                       : 4
    Format                                   : AAC LC SBR
    Format/Info                              : Advanced Audio Codec Low Complexity with Spectral Band Replication
    Commercial name                          : HE-AAC
    Format settings                          : Explicit
    Codec ID                                 : A_AAC-2
    Duration                                 : 2 h 54 min
    Bit rate                                 : 62.7 kb/s
    Channel(s)                               : 2 channels
    Channel layout                           : L R
    Sampling rate                            : 48.0 kHz
    Frame rate                               : 23.438 FPS (2048 SPF)
    Compression mode                         : Lossy
    Delay relative to video                  : 31 ms
    Stream size                              : 78.3 MiB (3%)
    Title                                    : Commentary 2
    Language                                 : English
    Default                                  : No
    Forced                                   : No

    Text #1
    ID                                       : 5
    Format                                   : UTF-8
    Codec ID                                 : S_TEXT/UTF8
    Codec ID/Info                            : UTF-8 Plain Text
    Duration                                 : 2 h 49 min
    Bit rate                                 : 49 b/s
    Count of elements                        : 1911
    Stream size                              : 61.1 KiB (0%)
    Language                                 : Czech
    Default                                  : Yes
    Forced                                   : No

    Text #2
    ID                                       : 6
    Format                                   : UTF-8
    Codec ID                                 : S_TEXT/UTF8
    Codec ID/Info                            : UTF-8 Plain Text
    Duration                                 : 2 h 51 min
    Bit rate                                 : 50 b/s
    Count of elements                        : 1902
    Stream size                              : 63.9 KiB (0%)
    Language                                 : English
    Default                                  : No
    Forced                                   : No











    pohee, haseki, lalik, Lampion104, PetrJaros, livia23,

    + Pridaj vlastnu verziu tohto torrentu +


    Upozornenie:
    Ziadny zo zobrazených súborov sa nenachádza na tomto serveri. Server slúzi len k síreniu vlastnorucne vytvorených aplikácií, videí, hudby ai. Autori stránok nenesú ziadnu zodpovednost za zverejnené odkazy, komentáre a obsah súborov. Vsetky komentáre, odkazy, súbory ktoré by svojou povahou mohli byt v rozpore zo zákonmi sem vkladáte na vlastnú zodpovednost. Autori stránok si vyhradzujú právo cenzúry odkazov, komentárov príp. súborov, ktoré by svojou povahou mohli byt v rozpore zo zákonmi a dobrými mravmi. Dodrzujte pravidlá!


    No comments...


    Back

    Na serveru se nenalézají zádne soubory. Za odkazy jsou výhradně zodpovědní uzivatelé a návstěvníci tohoto trackeru. Administrátor není zodpovědný za pridaný obsah ani za skody zpusobené uzivateli. Rozsirovat stránku nebo její obsah bez souhlasu ownera je zakázano. Nesmíte pouzívat tuto webovou stránku pro distribuovaní nebo download zádného materiálu pokud nemáte povolení od príslusného vlastníka práv. Uzivatelé jsou zodpovědní za dodrzování těchto pravidel a podmínek. Owner má právo kdykoliv změnit pravidla tohoto trackeru.

    [ Script trval: 0.023 sec. ] - [ GZIP: enabled ]
    Je zhruba 19:31
    sql

    TOPlist