Tvoj účet nieje VIP.
Preto sú tvoje funkcie a možnosti značne obmedzené.
Pre aktiváciu VIP klikni sem.

Zaklinac / The Witcher (S02)(2021)(FHD)(1080p)(x264)(WebDL)(CZ Dolby Atmos+Multi 6 Lang)(MultiSUB) = CSFD 78% | SkTorrent.eu

Cz-SkTorrent open Tracker, na volné zdielanie súborov. Pridajte sa k nasej komunite a získajte pristup k tisícom torrentov.

  • vysoká rýchlost
  • úplne zdarma
  • prevazne Slovenska a Ceska scena
  • ste tu s nami uz 5 rokov - Dakujeme
  • Vitaj Guest (Login) Ako stahovat
    torrenty?
    Torrenty:
    v1 textová
    v2 obrázková
    v3 online filmy
    Ako sa stat
    Uploaderom
    Online
    Filmy
    Forum
    Pravidlá
    BitTorrent
    klient
    Meno: Heslo:
    Zaregistrovat
    Po zaregistrovaní mozte volne stahovat
    Zabudol som heslo

    Torrent's details
    Zaklinac  / The Witcher (S02)(2021)(FHD)(1080p)(x264)(WebDL)(CZ Dolby Atmos+Multi 6 Lang)(MultiSUB) = CSFD 78% Názov:Zaklinac / The Witcher (S02)(2021)(FHD)(1080p)(x264)(WebDL)(CZ Dolby Atmos+Multi 6 Lang)(MultiSUB) = CSFD 78% Hodnocení:N/A Stiahnut
    Pozriet Online
    Kategória:Seriál Velikost:21.8 GB BitTorrent klient
    Pridaný: Súbory:
    Skontrolován:2022-05-29 Peerov:10 (Seed: 10, Leech: 0)
    Zaner:Akcni,Dobrodruzny,Drama,Fantasy Uploader:Uvidis, az ked budes
    VIP
    Kúp nám Pivo 1,10€

    Kúp nám Pivo
    Podporte nas na Facebooku !
    Pridaj do zalozky
    Pridaj do zalozky





    [center]






    Movie Name: The Witcher (S02)(2021)(Complete)
    IMDb Rating: 8.2/10

    Quality: 1080p (WebDL)
    Language: E-AC-3 5.1 Dolby Atmos 768 kb/s - English , Czech
    E-AC-3 2.0 128 kb/s - Polish , Hungarian , Ukrainian , Germany , Czech
    Subtitles: Multi
    Director: Alik Sakharov, Alex Garcia Lopez, Charlotte Brändström, Marc Jobst, Sarah O'Gorman, Stephen Surjik, Edward Bazalgette, Louise Hooper
    Writers: Lauren Schmidt, Beau DeMayo, Declan De Barra, Haily Hall, Jenny Klein, Sneha Koorse, Mike Ostrowski
    Genres: Action | Adventure | Fantasy | Drama | Mystery |


    Geralt of Rivia, a solitary monster hunter, struggles to find his place in a world where people often prove more wicked than beasts.




    [/center]

    Format                                   : Matroska
    Format version                           : Version 4
    File size                                : 2.80 GiB
    Duration                                 : 1 h 3 min
    Overall bit rate mode                    : Variable
    Overall bit rate                         : 6 329 kb/s
    Movie name                               : Zrnko pravdy
    Description                              : Geralt vyráží s Ciri na cestu, která ho dovede ke starému příteli. Jakmile u Soddenu ustane řinčení zbraní, začne Tissaia nelítostně pátrat po tom, co potřebuje vědět.
    Writing application                      : Lavf58.76.100
    Writing library                          : Lavf58.76.100
    ErrorDetectionType                       : Per level 1
    EPISODE_ID                               : 1
    SEASON_NUMBER                            : 2
    SHOW                                     : Zaklínač

    Video
    ID                                       : 1
    Format                                   : AVC
    Format/Info                              : Advanced Video Codec
    Format profile                           : High@L4
    Format settings                          : CABAC / 4 Ref Frames
    Format settings, CABAC                   : Yes
    Format settings, Reference frames        : 4 frames
    Codec ID                                 : V_MPEG4/ISO/AVC
    Duration                                 : 1 h 3 min
    Bit rate mode                            : Variable
    Bit rate                                 : 3 259 kb/s
    Maximum bit rate                         : 20.0 Mb/s
    Width                                    : 1 920 pixels
    Height                                   : 1 080 pixels
    Display aspect ratio                     : 16:9
    Frame rate mode                          : Constant
    Frame rate                               : 24.000 FPS
    Color space                              : YUV
    Chroma subsampling                       : 4:2:0
    Bit depth                                : 8 bits
    Scan type                                : Progressive
    Bits/(Pixel*Frame)                       : 0.065
    Stream size                              : 1.44 GiB (51%)
    Title                                    : 264:moovts=-1:fps=24:deps:par=auto@GPAC1.1.0-DEV-rev5538-g8173f2794-HEAD
    Writing library                          : x264 core 148 r2727 7d026e8
    Encoding settings                        : cabac=1 / ref=4 / deblock=1:0:0 / analyse=0x3:0x111 / me=umh / subme=10 / psy=1 / psy_rd=1.00:0.00 / mixed_ref=1 / me_range=120 / chroma_me=1 / trellis=2 / 8x8dct=1 / cqm=0 / deadzone=21,11 / fast_pskip=1 / chroma_qp_offset=-2 / threads=8 / lookahead_threads=2 / sliced_threads=0 / nr=0 / decimate=1 / interlaced=0 / bluray_compat=0 / stitchable=1 / constrained_intra=0 / bframes=16 / b_pyramid=2 / b_adapt=2 / b_bias=0 / direct=3 / weightb=1 / open_gop=0 / weightp=2 / keyint=240 / keyint_min=121 / scenecut=0 / intra_refresh=0 / rc_lookahead=240 / rc=crf / mbtree=1 / crf=19.0 / qcomp=0.50 / qpmin=6 / qpmax=51 / qpstep=4 / vbv_maxrate=20000 / vbv_bufsize=25000 / crf_max=0.0 / nal_hrd=vbr / filler=0 / ip_ratio=1.40 / aq=1:0.80
    Default                                  : Yes
    Forced                                   : No
    VENDOR_ID                                : [0][0][0][0]

    Audio #1
    ID                                       : 2
    Format                                   : E-AC-3 JOC
    Format/Info                              : Enhanced AC-3 with Joint Object Coding
    Commercial name                          : Dolby Digital Plus with Dolby Atmos
    Codec ID                                 : A_EAC3
    Duration                                 : 1 h 3 min
    Bit rate mode                            : Constant
    Bit rate                                 : 768 kb/s
    Channel(s)                               : 6 channels
    Channel layout                           : L R C LFE Ls Rs
    Sampling rate                            : 48.0 kHz
    Frame rate                               : 31.250 FPS (1536 SPF)
    Bit depth                                : 32 bits
    Compression mode                         : Lossy
    Stream size                              : 348 MiB (12%)
    Title                                    : čeština
    Language                                 : Czech
    Service kind                             : Complete Main
    Default                                  : Yes
    Forced                                   : No
    VENDOR_ID                                : [0][0][0][0]
    Complexity index                         : 16
    Number of dynamic objects                : 15
    Bed channel count                        : 1 channel
    Bed channel configuration                : LFE

    Audio #2
    ID                                       : 3
    Format                                   : E-AC-3
    Format/Info                              : Enhanced AC-3
    Commercial name                          : Dolby Digital Plus
    Codec ID                                 : A_EAC3
    Duration                                 : 1 h 3 min
    Bit rate mode                            : Constant
    Bit rate                                 : 128 kb/s
    Channel(s)                               : 2 channels
    Channel layout                           : L R
    Sampling rate                            : 48.0 kHz
    Frame rate                               : 31.250 FPS (1536 SPF)
    Bit depth                                : 32 bits
    Compression mode                         : Lossy
    Stream size                              : 57.9 MiB (2%)
    Title                                    : čeština
    Language                                 : Czech
    Service kind                             : Complete Main
    Default                                  : No
    Forced                                   : No
    VENDOR_ID                                : [0][0][0][0]

    Audio #3
    ID                                       : 4
    Format                                   : E-AC-3
    Format/Info                              : Enhanced AC-3
    Commercial name                          : Dolby Digital Plus
    Codec ID                                 : A_EAC3
    Duration                                 : 1 h 3 min
    Bit rate mode                            : Constant
    Bit rate                                 : 128 kb/s
    Channel(s)                               : 2 channels
    Channel layout                           : L R
    Sampling rate                            : 48.0 kHz
    Frame rate                               : 31.250 FPS (1536 SPF)
    Bit depth                                : 32 bits
    Compression mode                         : Lossy
    Stream size                              : 57.9 MiB (2%)
    Title                                    : němčina
    Language                                 : German
    Service kind                             : Complete Main
    Default                                  : No
    Forced                                   : No
    VENDOR_ID                                : [0][0][0][0]

    Audio #4
    ID                                       : 5
    Format                                   : E-AC-3 JOC
    Format/Info                              : Enhanced AC-3 with Joint Object Coding
    Commercial name                          : Dolby Digital Plus with Dolby Atmos
    Codec ID                                 : A_EAC3
    Duration                                 : 1 h 3 min
    Bit rate mode                            : Constant
    Bit rate                                 : 768 kb/s
    Channel(s)                               : 6 channels
    Channel layout                           : L R C LFE Ls Rs
    Sampling rate                            : 48.0 kHz
    Frame rate                               : 31.250 FPS (1536 SPF)
    Bit depth                                : 32 bits
    Compression mode                         : Lossy
    Stream size                              : 348 MiB (12%)
    Title                                    : angličtina [Originál]
    Language                                 : English
    Service kind                             : Complete Main
    Default                                  : No
    Forced                                   : No
    VENDOR_ID                                : [0][0][0][0]
    Complexity index                         : 16
    Number of dynamic objects                : 15
    Bed channel count                        : 1 channel
    Bed channel configuration                : LFE

    Audio #5
    ID                                       : 6
    Format                                   : E-AC-3
    Format/Info                              : Enhanced AC-3
    Commercial name                          : Dolby Digital Plus
    Codec ID                                 : A_EAC3
    Duration                                 : 1 h 3 min
    Bit rate mode                            : Constant
    Bit rate                                 : 128 kb/s
    Channel(s)                               : 2 channels
    Channel layout                           : L R
    Sampling rate                            : 48.0 kHz
    Frame rate                               : 31.250 FPS (1536 SPF)
    Bit depth                                : 32 bits
    Compression mode                         : Lossy
    Stream size                              : 57.9 MiB (2%)
    Title                                    : maďarština
    Language                                 : Hungarian
    Service kind                             : Complete Main
    Default                                  : No
    Forced                                   : No
    VENDOR_ID                                : [0][0][0][0]

    Audio #6
    ID                                       : 7
    Format                                   : E-AC-3
    Format/Info                              : Enhanced AC-3
    Commercial name                          : Dolby Digital Plus
    Codec ID                                 : A_EAC3
    Duration                                 : 1 h 3 min
    Bit rate mode                            : Constant
    Bit rate                                 : 128 kb/s
    Channel(s)                               : 2 channels
    Channel layout                           : L R
    Sampling rate                            : 48.0 kHz
    Frame rate                               : 31.250 FPS (1536 SPF)
    Bit depth                                : 32 bits
    Compression mode                         : Lossy
    Stream size                              : 57.9 MiB (2%)
    Title                                    : ukrajinština
    Language                                 : Ukrainian
    Service kind                             : Complete Main
    Default                                  : No
    Forced                                   : No
    VENDOR_ID                                : [0][0][0][0]

    Audio #7
    ID                                       : 8
    Format                                   : E-AC-3
    Format/Info                              : Enhanced AC-3
    Commercial name                          : Dolby Digital Plus
    Codec ID                                 : A_EAC3
    Duration                                 : 1 h 3 min
    Bit rate mode                            : Constant
    Bit rate                                 : 128 kb/s
    Channel(s)                               : 2 channels
    Channel layout                           : L R
    Sampling rate                            : 48.0 kHz
    Frame rate                               : 31.250 FPS (1536 SPF)
    Bit depth                                : 32 bits
    Compression mode                         : Lossy
    Stream size                              : 57.9 MiB (2%)
    Title                                    : Polština – lektor (jeden hlas)
    Service kind                             : Complete Main
    Default                                  : No
    Forced                                   : No
    VENDOR_ID                                : [0][0][0][0]

    Audio #8
    ID                                       : 9
    Format                                   : E-AC-3 JOC
    Format/Info                              : Enhanced AC-3 with Joint Object Coding
    Commercial name                          : Dolby Digital Plus with Dolby Atmos
    Codec ID                                 : A_EAC3
    Duration                                 : 1 h 3 min
    Bit rate mode                            : Constant
    Bit rate                                 : 768 kb/s
    Channel(s)                               : 6 channels
    Channel layout                           : L R C LFE Ls Rs
    Sampling rate                            : 48.0 kHz
    Frame rate                               : 31.250 FPS (1536 SPF)
    Bit depth                                : 32 bits
    Compression mode                         : Lossy
    Stream size                              : 348 MiB (12%)
    Title                                    : Polština – lektor (jeden hlas)
    Service kind                             : Complete Main
    Default                                  : No
    Forced                                   : No
    VENDOR_ID                                : [0][0][0][0]
    Complexity index                         : 16
    Number of dynamic objects                : 15
    Bed channel count                        : 1 channel
    Bed channel configuration                : LFE

    Text #1
    ID                                       : 10
    Format                                   : UTF-8
    Codec ID                                 : S_TEXT/UTF8
    Codec ID/Info                            : UTF-8 Plain Text
    Duration                                 : 1 h 1 min
    Title                                    : čeština
    Writing library                          : Lavc58.134.100 srt
    Language                                 : Czech
    Default                                  : Yes
    Forced                                   : No

    Text #2
    ID                                       : 11
    Format                                   : UTF-8
    Codec ID                                 : S_TEXT/UTF8
    Codec ID/Info                            : UTF-8 Plain Text
    Duration                                 : 1 h 1 min
    Title                                    : Czech [ForcedNarrative]
    Writing library                          : Lavc58.134.100 srt
    Language                                 : Czech
    Default                                  : No
    Forced                                   : No

    Text #3
    ID                                       : 12
    Format                                   : UTF-8
    Codec ID                                 : S_TEXT/UTF8
    Codec ID/Info                            : UTF-8 Plain Text
    Duration                                 : 1 h 1 min
    Title                                    : němčina
    Writing library                          : Lavc58.134.100 srt
    Language                                 : German
    Default                                  : No
    Forced                                   : No

    Text #4
    ID                                       : 13
    Format                                   : UTF-8
    Codec ID                                 : S_TEXT/UTF8
    Codec ID/Info                            : UTF-8 Plain Text
    Duration                                 : 1 h 1 min
    Title                                    : German [ForcedNarrative]
    Writing library                          : Lavc58.134.100 srt
    Language                                 : German
    Default                                  : No
    Forced                                   : No

    Text #5
    ID                                       : 14
    Format                                   : UTF-8
    Codec ID                                 : S_TEXT/UTF8
    Codec ID/Info                            : UTF-8 Plain Text
    Duration                                 : 58 min 56 s
    Title                                    : angličtina [CC]
    Writing library                          : Lavc58.134.100 srt
    Language                                 : English
    Default                                  : No
    Forced                                   : No

    Text #6
    ID                                       : 15
    Format                                   : UTF-8
    Codec ID                                 : S_TEXT/UTF8
    Codec ID/Info                            : UTF-8 Plain Text
    Duration                                 : 1 h 1 min
    Title                                    : maďarština
    Writing library                          : Lavc58.134.100 srt
    Language                                 : Hungarian
    Default                                  : No
    Forced                                   : No

    Text #7
    ID                                       : 16
    Format                                   : UTF-8
    Codec ID                                 : S_TEXT/UTF8
    Codec ID/Info                            : UTF-8 Plain Text
    Duration                                 : 1 h 1 min
    Title                                    : Hungarian [ForcedNarrative]
    Writing library                          : Lavc58.134.100 srt
    Language                                 : Hungarian
    Default                                  : No
    Forced                                   : No

    Text #8
    ID                                       : 17
    Format                                   : UTF-8
    Codec ID                                 : S_TEXT/UTF8
    Codec ID/Info                            : UTF-8 Plain Text
    Duration                                 : 1 h 1 min
    Title                                    : polština
    Writing library                          : Lavc58.134.100 srt
    Language                                 : Polish
    Default                                  : No
    Forced                                   : No

    Text #9
    ID                                       : 18
    Format                                   : UTF-8
    Codec ID                                 : S_TEXT/UTF8
    Codec ID/Info                            : UTF-8 Plain Text
    Duration                                 : 1 h 1 min
    Title                                    : Polish [ForcedNarrative]
    Writing library                          : Lavc58.134.100 srt
    Default                                  : No
    Forced                                   : No

    Text #10
    ID                                       : 19
    Format                                   : UTF-8
    Codec ID                                 : S_TEXT/UTF8
    Codec ID/Info                            : UTF-8 Plain Text
    Duration                                 : 1 h 1 min
    Title                                    : Ukrainian [ForcedNarrative]
    Writing library                          : Lavc58.134.100 srt
    Language                                 : Ukrainian
    Default                                  : No
    Forced                                   : No

    Text #11
    ID                                       : 20
    Format                                   : UTF-8
    Codec ID                                 : S_TEXT/UTF8
    Codec ID/Info                            : UTF-8 Plain Text
    Duration                                 : 1 h 1 min
    Title                                    : ukrajinština
    Writing library                          : Lavc58.134.100 srt
    Language                                 : Ukrainian
    Default                                  : No
    Forced                                   : No






    ONLINE

    S01E01
    S01E02
    S01E03
    S01E04
    S01E05
    S01E06
    S01E07
    S01E08




    miki6996, forester_74, hudrbica, marekbu, servisteamsk, jardakol, cajka, drag,

    + Pridaj vlastnu verziu tohto torrentu +


    Upozornenie:
    Ziadny zo zobrazených súborov sa nenachádza na tomto serveri. Server slúzi len k síreniu vlastnorucne vytvorených aplikácií, videí, hudby ai. Autori stránok nenesú ziadnu zodpovednost za zverejnené odkazy, komentáre a obsah súborov. Vsetky komentáre, odkazy, súbory ktoré by svojou povahou mohli byt v rozpore zo zákonmi sem vkladáte na vlastnú zodpovednost. Autori stránok si vyhradzujú právo cenzúry odkazov, komentárov príp. súborov, ktoré by svojou povahou mohli byt v rozpore zo zákonmi a dobrými mravmi. Dodrzujte pravidlá!





    0
    nentudom
    Ratio 1

    VIP

    29/05/2022 09.17.39
    díky


    Back

    Na serveru se nenalézají zádne soubory. Za odkazy jsou výhradně zodpovědní uzivatelé a návstěvníci tohoto trackeru. Administrátor není zodpovědný za pridaný obsah ani za skody zpusobené uzivateli. Rozsirovat stránku nebo její obsah bez souhlasu ownera je zakázano. Nesmíte pouzívat tuto webovou stránku pro distribuovaní nebo download zádného materiálu pokud nemáte povolení od príslusného vlastníka práv. Uzivatelé jsou zodpovědní za dodrzování těchto pravidel a podmínek. Owner má právo kdykoliv změnit pravidla tohoto trackeru.

    [ Script trval: 0.037 sec. ] - [ GZIP: enabled ]
    Je zhruba 09:09
    sql

    TOPlist