Tvoj účet nieje VIP.
Preto sú tvoje funkcie a možnosti značne obmedzené.
Pre aktiváciu VIP klikni sem.

Zenska veznice / The Jail: A Women's Hell (2006)(CZ) = CSFD 19% | SkTorrent.eu

Cz-SkTorrent open Tracker, na volné zdielanie súborov. Pridajte sa k nasej komunite a získajte pristup k tisícom torrentov.

  • vysoká rýchlost
  • úplne zdarma
  • prevazne Slovenska a Ceska scena
  • ste tu s nami uz 5 rokov - Dakujeme
  • Vitaj Guest (Login) Ako stahovat
    torrenty?
    Torrenty:
    v1 textová
    v2 obrázková
    v3 online filmy
    Ako sa stat
    Uploaderom
    Online
    Filmy
    Forum
    Pravidlá
    BitTorrent
    klient
    Meno: Heslo:
    Zaregistrovat
    Po zaregistrovaní mozte volne stahovat
    Zabudol som heslo

    Torrent's details
    Zenska veznice / The Jail: A Women's Hell (2006)(CZ) = CSFD 19% Názov:Zenska veznice / The Jail: A Women's Hell (2006)(CZ) = CSFD 19% Hodnocení: Stiahnut
    Pozriet Online
    Kategória:Filmy CZ/SK dabing Velikost:2.0 GB BitTorrent klient
    Pridaný: Súbory:
    Skontrolován:2018-02-16 Peerov:1 (Seed: 1, Leech: 0)
    Zaner:Dobrodruzny,Drama,Eroticky,Horor Uploader:Uvidis, az ked budes
    VIP
    Kúp nám Pivo 1,10€

    Kúp nám Pivo
    Podporte nas na Facebooku !
    Pridaj do zalozky
    Pridaj do zalozky





    Jazyk: Český
    Titulky: Nejsou
    Žánr: Horor / Drama / Erotický / Dobrodružný
    Vznik: Itálie, 2006
    Délka: 94 minut

    ČSfD
    http://www.csfd.cz/film/236046-zenska-veznice/





    OBSAH:
    - Do věznice ukryté v džungli přijíždějí nové dívky. Vědí, že vězení není žádný med, ale to, co je tady čeká, je mnohem horší než jejich představy. Sadistické dozorkyně tvrdě trestají sebemenší prohřešek. Některé vězenkyně jsou umučeny k smrti, jiné, ty krásné, jsou nuceny uspokojovat zvrhlé choutky zákazníků nedalekého nevěstince. Jen ty nejodvážnější se pokusí utéct. Jejich naděje je však mizivá. Stávají se snadnou kořistí pro lovce, kteří nemají slitování.




     

    General
    Complete name: Ženská věznice (2006).avi
    Format: AVI
    Format/Info: Audio Video Interleave
    Format profile: OpenDML
    File size: 1.95 GiB
    Duration: 1h 33mn
    Overall bit rate: 2 977 Kbps
    Writing application: MEncoder SVN-r30881(20100311-gcc4.3.3)
    Writing library: MPlayer

    Video
    ID: 0
    Format: MPEG-4 Visual
    Format profile: Advanced Simple@L5
    Format settings, BVOP: 2
    Format settings, QPel: No
    Format settings, GMC: No warppoints
    Format settings, Matrix: Default (H.263)
    Codec ID: XVID
    Codec ID/Hint: XviD
    Duration: 1h 33mn
    Bit rate: 2 709 Kbps
    Width: 718 pixels
    Height: 568 pixels
    Display aspect ratio: 16:9
    Original display aspect ratio: 16:9
    Frame rate: 25.000 fps
    Color space: YUV
    Chroma subsampling: 4:2:0
    Bit depth: 8 bits
    Scan type: Progressive
    Compression mode: Lossy
    Bits/(Pixel*Frame): 0.266
    Stream size: 1.78 GiB (91%)
    Writing library: XviD 1.2.1 (UTC 2008-12-04)

    Audio
    ID: 1
    Format: MPEG Audio
    Format version: Version 1
    Format profile: Layer 3
    Mode: Joint stereo
    Codec ID: 55
    Codec ID/Hint: MP3
    Duration: 1h 33mn
    Bit rate mode: Constant
    Bit rate: 256 Kbps
    Channel(s): 2 channels
    Sampling rate: 44.1 KHz
    Compression mode: Lossy
    Delay relative to video: 40ms
    Stream size: 172 MiB (9%)
    Alignment: Aligned on interleaves
    Interleave, duration: 26 ms (0.65 video frame)
    Interleave, preload duration: 522 ms
    Writing library                : LAME3.98







    + Pridaj vlastnu verziu tohto torrentu +


    Upozornenie:
    Ziadny zo zobrazených súborov sa nenachádza na tomto serveri. Server slúzi len k síreniu vlastnorucne vytvorených aplikácií, videí, hudby ai. Autori stránok nenesú ziadnu zodpovednost za zverejnené odkazy, komentáre a obsah súborov. Vsetky komentáre, odkazy, súbory ktoré by svojou povahou mohli byt v rozpore zo zákonmi sem vkladáte na vlastnú zodpovednost. Autori stránok si vyhradzujú právo cenzúry odkazov, komentárov príp. súborov, ktoré by svojou povahou mohli byt v rozpore zo zákonmi a dobrými mravmi. Dodrzujte pravidlá!


    No comments...


    Back

    Na serveru se nenalézají zádne soubory. Za odkazy jsou výhradně zodpovědní uzivatelé a návstěvníci tohoto trackeru. Administrátor není zodpovědný za pridaný obsah ani za skody zpusobené uzivateli. Rozsirovat stránku nebo její obsah bez souhlasu ownera je zakázano. Nesmíte pouzívat tuto webovou stránku pro distribuovaní nebo download zádného materiálu pokud nemáte povolení od príslusného vlastníka práv. Uzivatelé jsou zodpovědní za dodrzování těchto pravidel a podmínek. Owner má právo kdykoliv změnit pravidla tohoto trackeru.

    [ Script trval: 0.019 sec. ] - [ GZIP: enabled ]
    BtiTracker (1.4.8) by Btiteam
    Je zhruba 00:04

    TOPlist