Tvoj účet nieje VIP.
Preto sú tvoje funkcie a možnosti značne obmedzené.
Pre aktiváciu VIP klikni sem.

Zlouni / Smradi / The Bad Guys (2022)(EN+CZtit.)[2160p][HEVC][HDR10] = CSFD 75% | SkTorrent.eu

Cz-SkTorrent open Tracker, na volné zdielanie súborov. Pridajte sa k nasej komunite a získajte pristup k tisícom torrentov.

  • vysoká rýchlost
  • úplne zdarma
  • prevazne Slovenska a Ceska scena
  • ste tu s nami uz 5 rokov - Dakujeme
  • Vitaj Guest (Login) Ako stahovat
    torrenty?
    Torrenty:
    v1 textová
    v2 obrázková
    v3 online filmy
    Ako sa stat
    Uploaderom
    Online
    Filmy
    Forum
    Pravidlá
    BitTorrent
    klient
    Meno: Heslo:
    Zaregistrovat
    Po zaregistrovaní mozte volne stahovat
    Zabudol som heslo

    Torrent's details
    Zlouni / Smradi / The Bad Guys (2022)(EN+CZtit.)[2160p][HEVC][HDR10] = CSFD 75% Názov:Zlouni / Smradi / The Bad Guys (2022)(EN+CZtit.)[2160p][HEVC][HDR10] = CSFD 75% Hodnocení: Stiahnut
    Pozriet Online
    Kategória:Filmy s titulkama Velikost:10.9 GB BitTorrent klient
    Pridaný: Súbory:
    Skontrolován:2022-06-08 Peerov:4 (Seed: 4, Leech: 0)
    Zaner:Akcni,Animovany,Komedie,Krimi Uploader:Uvidis, az ked budes
    VIP
    Kúp nám Pivo 1,10€

    Kúp nám Pivo
    Podporte nas na Facebooku !
    Pridaj do zalozky
    Pridaj do zalozky




    Zlouni / Smradi / The Bad Guys (2022) = CSFD 75%



           

    Jazyk: anglický
    Titulky: české, anglické
    Zdroj CZ  tituliek: titulky.com - neobit78
    Žáner: Animovaný / Akční / Komedie / Krimi / Rodinný
    Témy: policie, pronásledování, gang, krádež, druhá šance
    USA, 2022, 100 min

    Režie: Pierre Perifel
    Scénář: Etan Cohen, Hilary Winston
    Kamera: Daniel Pemberton
    Hudba: Lalo Schifrin
    Hrají: Sam Rockwell, Awkwafina, Craig Robinson, Marc Maron, Anthony Ramos, Zazie Beetz, Alex Borstein, Richard Ayoade, Lilly Singh...

    Popis
    Málokteří hrdinové mají tak špatnou pověst jako Vlk, Had, Tarantule, Piraňa a Žralok. Tihle psanci se tak dlouho hledali, až se našli a dali dohromady tým, pro který je spáchání dokonalého zločinu stejná brnkačka jako vyrazit si v neděli odpoledne na zmrzlinu. Hlavou party je Vlk, Had má na starosti otevírání sejfů, Tarantule je zkušená hackerka, Žralok se umí skvěle maskovat a Piraňa je vztekloun, který pro ránu nejde daleko. Za léta strávená loupežemi všeho druhu získali dojem, že jsou nepolapitelní, jenže i pro ně nakonec bude platit, že se tak dlouho chodí do sejfu pro diamanty, až se zámek zacvakne. Konkrétně máme na mysli zámek na policejní cele. I v téhle prekérní situaci má však pětice zlounů štěstí v neštěstí. Do života jim vstoupí profesor Marmaláda (morče a především klaďas tělem a duší), který má ambiciózní plán – převychovat je na dobráky. Všichni členové gangu souhlasí, protože je to vstupenka na svobodu. Jejich plán počítá s tím, že na oko budou sekat latinu a při první příležitosti se vypaří. Jenže už prvních pár dobrých skutků vede k nečekanému zjištění, že být dobrý je vlastně fajn. Co si s tím počít? A jak se mají zachovat, když uvolněný trůn pro největšího záporáka zabere někdo další? Budou s ním jednat v rukavičkách, nebo si to s ním vyřídí ručně?





    Hlavní
    Format: Matroska
    Format version: Version 4
    File size: 10.9 GiB
    Duration: 1 h 40 min
    Overall bit rate: 15.6 Mb/s
    Movie name: The.Bad.Guys.2022.CMRG
    Encoded date: UTC 2022-06-05 18:38:13
    Writing application: mkvmerge v64.0.0 ('Willows') 64-bit
    Writing library: libebml v1.4.2 + libmatroska v1.6.4

    Video
    Format: HEVC
    Format/Info: High Efficiency Video Coding
    Format profile: Main 10@L5@Main
    HDR format: SMPTE ST 2094 App 4, Version 1, HDR10+ Profile B compatible
    Codec ID: V_MPEGH/ISO/HEVC
    Duration: 1 h 40 min
    Bit rate: 15.0 Mb/s
    Width: 3 840 pixels
    Height: 1 600 pixels
    Display aspect ratio: 2.40:1
    Frame rate mode: Constant
    Frame rate: 23.976 (24000/1001) FPS
    Color space: YUV
    Chroma subsampling: 4:2:0
    Bit depth: 10 bits
    Bits/(Pixel*Frame): 0.102
    Stream size: 10.5 GiB (96%)
    Language: English
    Default: Yes
    Forced: No
    Color range: Limited
    Color primaries: BT.2020
    Transfer characteristics: PQ
    Matrix coefficients: BT.2020 non-constant
    Mastering display color primaries: Display P3
    Mastering display luminance: min: 0.0001 cd/m2, max: 1000 cd/m2
    Maximum Content Light Level: 651 cd/m2
    Maximum Frame-Average Light Level: 240 cd/m2

    Audio
    Format: E-AC-3
    Format/Info: Enhanced AC-3
    Commercial name: Dolby Digital Plus
    Codec ID: A_EAC3
    Duration: 1 h 40 min
    Bit rate mode: Constant
    Bit rate: 640 kb/s
    Channel(s): 6 channels
    Channel layout: L R C LFE Ls Rs
    Sampling rate: 48.0 kHz
    Frame rate: 31.250 FPS (1536 SPF)
    Compression mode: Lossy
    Stream size: 458 MiB (4%)
    Language: English
    Service kind: Complete Main
    Default: Yes
    Forced: No

    Text #1
    Format: UTF-8
    Codec ID: S_TEXT/UTF8
    Codec ID/Info: UTF-8 Plain Text
    Duration: 1 h 32 min
    Bit rate: 78 b/s
    Count of elements: 1751
    Stream size: 53.1 KiB (0%)
    Language: Czech
    Default: Yes
    Forced: No

    Text #2
    Format: UTF-8
    Codec ID: S_TEXT/UTF8
    Codec ID/Info: UTF-8 Plain Text
    Duration: 1 h 32 min
    Bit rate: 73 b/s
    Count of elements: 1775
    Stream size: 49.9 KiB (0%)
    Language: English
    Default: No
    Forced: No




    ONLINE











    Machyc79, Petriosek, kari1989, PaulCeskySlovensky, milanhugo,

    + Pridaj vlastnu verziu tohto torrentu +


    Upozornenie:
    Ziadny zo zobrazených súborov sa nenachádza na tomto serveri. Server slúzi len k síreniu vlastnorucne vytvorených aplikácií, videí, hudby ai. Autori stránok nenesú ziadnu zodpovednost za zverejnené odkazy, komentáre a obsah súborov. Vsetky komentáre, odkazy, súbory ktoré by svojou povahou mohli byt v rozpore zo zákonmi sem vkladáte na vlastnú zodpovednost. Autori stránok si vyhradzujú právo cenzúry odkazov, komentárov príp. súborov, ktoré by svojou povahou mohli byt v rozpore zo zákonmi a dobrými mravmi. Dodrzujte pravidlá!


    No comments...


    Back

    Na serveru se nenalézají zádne soubory. Za odkazy jsou výhradně zodpovědní uzivatelé a návstěvníci tohoto trackeru. Administrátor není zodpovědný za pridaný obsah ani za skody zpusobené uzivateli. Rozsirovat stránku nebo její obsah bez souhlasu ownera je zakázano. Nesmíte pouzívat tuto webovou stránku pro distribuovaní nebo download zádného materiálu pokud nemáte povolení od príslusného vlastníka práv. Uzivatelé jsou zodpovědní za dodrzování těchto pravidel a podmínek. Owner má právo kdykoliv změnit pravidla tohoto trackeru.

    [ Script trval: 0.025 sec. ] - [ GZIP: enabled ]
    Je zhruba 08:42
    sql

    TOPlist