Tvoj účet nieje VIP.
Preto sú tvoje funkcie a možnosti značne obmedzené.
Pre aktiváciu VIP klikni sem.

Zluta ponorka / The Beatles: Yellow Submarine (1968)[720p] = CSFD 82% | SkTorrent.eu

Cz-SkTorrent open Tracker, na volné zdielanie súborov. Pridajte sa k nasej komunite a získajte pristup k tisícom torrentov.

  • vysoká rýchlost
  • úplne zdarma
  • prevazne Slovenska a Ceska scena
  • ste tu s nami uz 5 rokov - Dakujeme
  • Vitaj Guest (Login) Ako stahovat
    torrenty?
    Torrenty:
    v1 textová
    v2 obrázková
    v3 online filmy
    Ako sa stat
    Uploaderom
    Online
    Filmy
    Forum
    Pravidlá
    BitTorrent
    klient
    Meno: Heslo:
    Zaregistrovat
    Po zaregistrovaní mozte volne stahovat
    Zabudol som heslo

    Torrent's details
    Zluta ponorka / The Beatles: Yellow Submarine (1968)[720p] = CSFD 82% Názov:Zluta ponorka / The Beatles: Yellow Submarine (1968)[720p] = CSFD 82% Hodnocení:N/A Stiahnut
    Pozriet Online
    Kategória:Filmy s titulkama Velikost:3.7 GB BitTorrent klient
    Pridaný: Súbory:
    Skontrolován:2019-04-23 Peerov:2 (Seed: 2, Leech: 0)
    Zaner:Animovany,Fantasy,Hudebni,Komedie Uploader:Uvidis, az ked budes
    VIP
    Kúp nám Pivo 1,10€

    Kúp nám Pivo
    Podporte nas na Facebooku !
    Pridaj do zalozky
    Pridaj do zalozky





    Žlutá ponorka / The Beatles: Yellow Submarine

    Rok vydání: 1968
    Doba trvání: 1 h 29 min
    Animovaný / Fantasy / Hudební / Komedie
    Audio 1: A_AC3, 6 channels English
    Audio 2: A_FLAC, 2 channels English
    Titulky 1: UTF-8 Czech
    Titulky 2: UTF-8 English

    https://www.csfd.cz/film/33799-zluta-ponorka/prehled/

    Popis: Modří mizerové vyhlásili městu Pepřenii válku a poslali hrozivou modrou rukavici, aby zničila vše dobré. Kapitán Fred požádá o pomoc členy skupiny Beatles - Johna, Paula, Ringa a George. Ti s ním proplouvají se s svou žlutou ponorkou oceánem plným nástrah a nebezpečí. Mají jediný cíl - svrhnout modré ničemy a nastolit mír. Jedná se o barevný animovaný snímek, ve kterém nakonec hudba porazí zlo.

    Kompletní výpis z MediaInfo:

    Code
    Žlutá ponorka _ The Beatles_ Yellow Submarine 1968, EN - CZ tit.mkv
    Format                                   : Matroska
    Format version                           : Version 4 / Version 2
    File size                                : 3.69 GiB
    Duration                                 : 1 h 29 min
    Overall bit rate mode                    : Variable
    Overall bit rate                         : 5 888 kb/s
    Movie name                               : Žlutá ponorka / The Beatles: Yellow Submarine 1968
    Encoded date                             : UTC 2015-12-24 11:46:02
    Writing application                      : mkvmerge v8.5.2 ('Crosses') 32bit
    Writing library                          : libebml v1.3.3 + libmatroska v1.4.4

    Video
    ID                                       : 1
    Format                                   : AVC
    Format/Info                              : Advanced Video Codec
    Format profile                           : High@L4
    Format settings                          : CABAC / 9 Ref Frames
    Format settings, CABAC                   : Yes
    Format settings, ReFrames                : 9 frames
    Codec ID                                 : V_MPEG4/ISO/AVC
    Duration                                 : 1 h 29 min
    Bit rate                                 : 4 565 kb/s
    Width                                    : 1 200 pixels
    Height                                   : 720 pixels
    Display aspect ratio                     : 5:3
    Frame rate mode                          : Constant
    Frame rate                               : 23.976 (24000/1001) FPS
    Color space                              : YUV
    Chroma subsampling                       : 4:2:0
    Bit depth                                : 8 bits
    Scan type                                : Progressive
    Bits/(Pixel*Frame)                       : 0.220
    Stream size                              : 2.86 GiB (78%)
    Title                                    : BDRip 720p
    Writing library                          : x264 core 125 r2200kMod 999b753
    Encoding settings                        : cabac=1 / ref=9 / deblock=1:0:0 / analyse=0x3:0x113 / me=umh / subme=11 / psy=1 / fade_compensate=0.00 / psy_rd=1.00:0.10 / mixed_ref=1 / me_range=48 / chroma_me=1 / trellis=2 / 8x8dct=1 / cqm=0 / deadzone=21,11 / fast_pskip=0 / chroma_qp_offset=-3 / threads=6 / lookahead_threads=1 / sliced_threads=0 / nr=0 / decimate=1 / interlaced=0 / bluray_compat=0 / constrained_intra=0 / bframes=9 / b_pyramid=2 / b_adapt=2 / b_bias=0 / direct=1 / weightb=1 / open_gop=0 / weightp=2 / keyint=250 / keyint_min=23 / scenecut=40 / intra_refresh=0 / rc_lookahead=40 / rc=crf / mbtree=1 / crf=16.0000 / qcomp=0.60 / qpmin=0 / qpmax=69 / qpstep=4 / ip_ratio=1.40 / aq=2:1.00
    Language                                 : English
    Default                                  : Yes
    Forced                                   : No

    Audio #1
    ID                                       : 2
    Format                                   : AC-3
    Format/Info                              : Audio Coding 3
    Codec ID                                 : A_AC3
    Duration                                 : 1 h 29 min
    Bit rate mode                            : Constant
    Bit rate                                 : 640 kb/s
    Channel(s)                               : 6 channels
    Channel positions                        : Front: L C R, Side: L R, LFE
    Sampling rate                            : 48.0 kHz
    Frame rate                               : 31.250 FPS (1536 SPF)
    Bit depth                                : 16 bits
    Compression mode                         : Lossy
    Stream size                              : 410 MiB (11%)
    Title                                    : English 5.1 Surround Sound
    Language                                 : English
    Service kind                             : Complete Main
    Default                                  : Yes
    Forced                                   : No

    Audio #2
    ID                                       : 3
    Format                                   : FLAC
    Format/Info                              : Free Lossless Audio Codec
    Codec ID                                 : A_FLAC
    Duration                                 : 1 h 29 min
    Bit rate mode                            : Variable
    Bit rate                                 : 681 kb/s
    Channel(s)                               : 2 channels
    Channel positions                        : Front: L R
    Sampling rate                            : 48.0 kHz
    Frame rate                               : 11.719 FPS (4096 SPF)
    Bit depth                                : 16 bits
    Stream size                              : 437 MiB (12%)
    Title                                    : English Stereo
    Writing library                          : libFLAC 20080709 (UTC 2008-07-09)
    Language                                 : English
    Default                                  : No
    Forced                                   : No

    Text #1
    ID                                       : 4
    Format                                   : UTF-8
    Codec ID                                 : S_TEXT/UTF8
    Codec ID/Info                            : UTF-8 Plain Text
    Duration                                 : 1 h 28 min
    Bit rate                                 : 40 b/s
    Count of elements                        : 923
    Stream size                              : 26.2 KiB (0%)
    Title                                    : CZ
    Language                                 : Czech
    Default                                  : Yes
    Forced                                   : No

    Text #2
    ID                                       : 5
    Format                                   : UTF-8
    Codec ID                                 : S_TEXT/UTF8
    Codec ID/Info                            : UTF-8 Plain Text
    Duration                                 : 1 h 27 min
    Bit rate                                 : 32 b/s
    Count of elements                        : 642
    Stream size                              : 20.7 KiB (0%)
    Title                                    : EN
    Language                                 : English
    Default                                  : No
    Forced                                   : No

    Menu
    00:00:00.000                             : :01. Pepperland
    00:01:40.648                             : :02.The Meanies Attack
    00:05:32.880                             : :03. Lord Mayor's Quartet
    00:07:33.000                             : :04. Yellow Submarine
    00:10:16.080                             : :05. Eleanor Rigby
    00:13:13.298                             : :06. The Sub Stalks Ringo
    00:16:03.719                             : :07. Ringo's House
    00:18:41.376                             : :08. George Is Here!
    00:20:54.968                             : :09. Finding Paul
    00:22:02.661                             : :10. Blast Off!
    00:22:46.746                             : :11. All Together Now
    00:25:32.078                             : :12. Time For Time!
    00:28:06.399                             : :13. When I'm 64
    00:31:00.865                             : :14. Only A Northern Song
    00:33:52.328                             : :15. Sea Of Monsters
    00:40:18.005                             : :16. Who / What Is This?
    00:42:55.579                             : :17. Nowhere Man
    00:46:23.870                             : :18. P Is For Goodbye
    00:47:42.365                             : :19. Lucy In The Sky With Diamonds
    00:51:11.700                             : :20. Sea Of Holes
    00:54:43.411                             : :21. Help Has Arrived!
    00:56:48.411                             : :22. Hiding Among Meanies
    01:01:48.586                             : :23. The Band's Stash
    01:03:14.422                             : :24. A New Blue Day
    01:04:46.680                             : :25. Green Apple Bopping
    01:06:08.929                             : :26. Sgt. Pepper's Lonely Hearts Club Band
    01:08:20.978                             : :27. With A Little Help From My Friends
    01:08:47.254                             : :28. Who is Blue?
    01:11:24.411                             : :29. All You Need Is Love
    01:14:41.066                             : :30. Alter Ego Band
    01:16:57.577                             : :31. Hey Bulldog
    01:20:29.706                             : :32. Rescuing Jeremy
    01:21:21.966                             : :33. Blooming Blue
    01:24:18.017                             : :34. It's All Too Much
    01:26:52.130                             : :35. All Together Now (reprise)
    01:28:40.238                             : :36. End Credits







    + Pridaj vlastnu verziu tohto torrentu +


    Upozornenie:
    Ziadny zo zobrazených súborov sa nenachádza na tomto serveri. Server slúzi len k síreniu vlastnorucne vytvorených aplikácií, videí, hudby ai. Autori stránok nenesú ziadnu zodpovednost za zverejnené odkazy, komentáre a obsah súborov. Vsetky komentáre, odkazy, súbory ktoré by svojou povahou mohli byt v rozpore zo zákonmi sem vkladáte na vlastnú zodpovednost. Autori stránok si vyhradzujú právo cenzúry odkazov, komentárov príp. súborov, ktoré by svojou povahou mohli byt v rozpore zo zákonmi a dobrými mravmi. Dodrzujte pravidlá!


    No comments...


    Back

    Na serveru se nenalézají zádne soubory. Za odkazy jsou výhradně zodpovědní uzivatelé a návstěvníci tohoto trackeru. Administrátor není zodpovědný za pridaný obsah ani za skody zpusobené uzivateli. Rozsirovat stránku nebo její obsah bez souhlasu ownera je zakázano. Nesmíte pouzívat tuto webovou stránku pro distribuovaní nebo download zádného materiálu pokud nemáte povolení od príslusného vlastníka práv. Uzivatelé jsou zodpovědní za dodrzování těchto pravidel a podmínek. Owner má právo kdykoliv změnit pravidla tohoto trackeru.

    [ Script trval: 0.053 sec. ] - [ GZIP: enabled ]
    BtiTracker (1.4.8) by Btiteam
    Je zhruba 13:35

    TOPlist