Tvoj účet nieje VIP.
Preto sú tvoje funkcie a možnosti značne obmedzené.
Pre aktiváciu VIP klikni sem.

Zpivej 2 / Sing 2 (CZ/SK/EN)(2021)(2160p-HEVC) = CSFD 80% | SkTorrent.eu

Cz-SkTorrent open Tracker, na volné zdielanie súborov. Pridajte sa k nasej komunite a získajte pristup k tisícom torrentov.

  • vysoká rýchlost
  • úplne zdarma
  • prevazne Slovenska a Ceska scena
  • ste tu s nami uz 5 rokov - Dakujeme
  • Vitaj Guest (Login) Ako stahovat
    torrenty?
    Torrenty:
    v1 textová
    v2 obrázková
    v3 online filmy
    Ako sa stat
    Uploaderom
    Online
    Filmy
    Forum
    Pravidlá
    BitTorrent
    klient
    Meno: Heslo:
    Zaregistrovat
    Po zaregistrovaní mozte volne stahovat
    Zabudol som heslo

    Torrent's details
    Zpivej 2 / Sing 2 (CZ/SK/EN)(2021)(2160p-HEVC) = CSFD 80% Názov:Zpivej 2 / Sing 2 (CZ/SK/EN)(2021)(2160p-HEVC) = CSFD 80% Hodnocení: Stiahnut
    Pozriet Online
    Kategória:UHD Filmy Velikost:17.0 GB BitTorrent klient
    Pridaný: Súbory:
    Skontrolován:2022-07-04 Peerov:8 (Seed: 8, Leech: 0)
    Zaner:Animovany,Komedie,Muzikal,Rodinny Uploader:Uvidis, az ked budes
    VIP
    Kúp nám Pivo 1,10€

    Kúp nám Pivo
    Podporte nas na Facebooku !
    Pridaj do zalozky
    Pridaj do zalozky











    Animovaný / Muzikál / Komedie / Rodinný
    USA, 2021, 110 min


    Video: 2160p MKV HEVC
    Audio : CZ/SK/EN Dabing - AC-3 5.1- 448 kb/s (EN-7.1- 1 536 kb/s
    Titulky : CZ/SK + CZ forced

    Režie: Garth Jennings
    Scénář: Garth Jennings
    Hudba: Joby Talbot
    Hrají: Taron Egerton, (Scarlett Johansson - ), (Reese Witherspoon - ), Matthew McConaughey, Adam Buxton, Garth Jennings, Tori Kelly, Nick Kroll, Nick Offerman,
    Produkce: Christopher Meledandri, Janet Healy
    Střih: Gregory Perler
    Zvuk: Gary A. Rizzo, Dennis Leonard, Juan Peralta

    Náhled








    Kdo chce říct, že v šoubyznysu skutečně prorazil, musí mít vlastní vystoupení v Redshore City, hlavním městě zábavy. Jenže tam to má pevně pod kontrolou nelítostný vlk Jimmy Crystal, bez jehož souhlasu nemůžete ve městě ani otevřít pusu, natož abyste zazpívali. Koalák Buster Moon sice má ve svém týmu hvězdnou pěveckou sestavu (dikobrazí rockerka Ash, plachá slonice Meena, citlivý gorilák Johnny nebo věčně provokující čuně jménem Gunter), ale i tak je skoro jisté, že konkurz u Jimmyho Crystala skončí totálním krachem. A tak Buster totálně zariskuje (ostatně v prvním díle mu to opakovaně vycházelo) a znuděnému Crystalovi slíbí, že když bude moci v jeho městě nazkoušet show, obsadí do ní největší žijící hudební legendu, lva Claye Callowaye. Potíž je v tom, že Calloway už léta žije v ústraní, zásadně nevystupuje a asi poslední, kdo by ho k tomu přemluvil, je jeden otravný koalák. Jenže Buster razí zásadu, že jen opravdu velké sny mají nějakou cenu, a pro jejich splnění je ochoten udělat opravdu cokoliv. (CinemArt)



    Formát                                   : Matroska
    Format version                           : Version 4
    Velikost souboru                         : 17,0 GiB
    Duration                                 : 1 h 49 min
    Celkový BitRate                          : 22,1 Mb/s
    Název filmu                              : Sing 2 / (2021)
    Encoded date                             : UTC 2022-07-03 20:25:53
    Použitý software                         : mkvmerge v67.0.0 ('Under Stars') 64-bit
    Enkódoval                                : libebml v1.4.2 + libmatroska v1.6.4 / Lavf58.76.100

    Video
    ID                                       : 1
    Formát                                   : HEVC
    Formát/Info                              : High Efficiency Video Coding
    Format profile                           : Main@L5@Main
    Codec ID                                 : V_MPEGH/ISO/HEVC
    Duration                                 : 1 h 49 min
    Bit rate                                 : 19,7 Mb/s
    Šířka                                    : 3 840pixely
    Výška                                    : 2 160pixely
    Poměr stran                              : 1,85:1
    Frame rate mode                          : Constant
    Frame rate                               : 23,976 (24000/1001) FPS
    Color space                              : YUV
    Chroma subsampling                       : 4:2:0
    Bit depth                                : 8 bits
    Bits/(Pixel*Frame)                       : 0.099
    Stream size                              : 15,1 GiB (89%)
    Default                                  : Ano
    Forced                                   : Ne
    Color range                              : Limited
    Color primaries                          : BT.709
    Transfer characteristics                 : BT.709
    Matrix coefficients                      : BT.709

    Audio #1
    ID                                       : 2
    Formát                                   : AC-3
    Formát/Info                              : Audio Coding 3
    Commercial name                          : Dolby Digital
    Codec ID                                 : A_AC3
    Duration                                 : 1 h 49 min
    Bit rate mode                            : Constant
    Bit rate                                 : 448 kb/s
    Kanál(y)                                 : 6 kanály
    Channel layout                           : L R C LFE Ls Rs
    Sampling rate                            : 48,0 kHz
    Frame rate                               : 31,250 FPS (1536 SPF)
    Compression mode                         : Lossy
    Stream size                              : 352 MiB (2%)
    Titul                                    : Czech
    Jazyk                                    : Czech
    Service kind                             : Complete Main
    Default                                  : Ano
    Forced                                   : Ne

    Audio #2
    ID                                       : 3
    Formát                                   : AC-3
    Formát/Info                              : Audio Coding 3
    Commercial name                          : Dolby Digital
    Codec ID                                 : A_AC3
    Duration                                 : 1 h 49 min
    Bit rate mode                            : Constant
    Bit rate                                 : 448 kb/s
    Kanál(y)                                 : 6 kanály
    Channel layout                           : L R C LFE Ls Rs
    Sampling rate                            : 48,0 kHz
    Frame rate                               : 31,250 FPS (1536 SPF)
    Compression mode                         : Lossy
    Stream size                              : 352 MiB (2%)
    Titul                                    : Slovak
    Jazyk                                    : Slovak
    Service kind                             : Complete Main
    Default                                  : Ne
    Forced                                   : Ne

    Audio #3
    ID                                       : 4
    Formát                                   : E-AC-3
    Formát/Info                              : Enhanced AC-3
    Commercial name                          : Dolby Digital Plus
    Format profile                           : Blu-ray Disc
    Format settings                          : Dolby Surround EX
    Codec ID                                 : A_EAC3
    Duration                                 : 1 h 49 min
    Bit rate mode                            : Constant
    Bit rate                                 : 1 536 kb/s
    Kanál(y)                                 : 8 kanály
    Channel layout                           : L R C LFE Ls Rs Lb Rb
    Sampling rate                            : 48,0 kHz
    Frame rate                               : 31,250 FPS (1536 SPF)
    Compression mode                         : Lossy
    Stream size                              : 1,18 GiB (7%)
    Titul                                    : English
    Jazyk                                    : English
    Service kind                             : Complete Main
    Default                                  : Ne
    Forced                                   : Ne

    Text #1
    ID                                       : 5
    Formát                                   : ASS
    Codec ID                                 : S_TEXT/ASS
    Codec ID/Info                            : Advanced Sub Station Alpha
    Duration                                 : 1 h 48 min
    Bit rate                                 : 76 b/s
    Frame rate                               : 0,160 FPS
    Count of elements                        : 1044
    Compression mode                         : Lossless
    Stream size                              : 61,1 KiB (0%)
    Titul                                    : Czech Full
    Jazyk                                    : Czech
    Default                                  : Ne
    Forced                                   : Ne

    Text #2
    ID                                       : 6
    Formát                                   : ASS
    Codec ID                                 : S_TEXT/ASS
    Codec ID/Info                            : Advanced Sub Station Alpha
    Duration                                 : 1 h 34 min
    Bit rate                                 : 0 b/s
    Frame rate                               : 0,001 FPS
    Count of elements                        : 8
    Compression mode                         : Lossless
    Stream size                              : 417 Bytes (0%)
    Titul                                    : Czech Forced
    Jazyk                                    : Czech
    Default                                  : Ne
    Forced                                   : Ne

    Text #3
    ID                                       : 7
    Formát                                   : PGS
    Muxing mode                              : zlib
    Codec ID                                 : S_HDMV/PGS
    Codec ID/Info                            : Picture based subtitle format used on BDs/HD-DVDs
    Duration                                 : 1 h 32 min
    Bit rate                                 : 82 b/s
    Frame rate                               : 0,001 FPS
    Count of elements                        : 6
    Stream size                              : 56,0 KiB (0%)
    Titul                                    : Slovak Full
    Jazyk                                    : Slovak
    Default                                  : Ne
    Forced                                   : Ne

    Menu
    00:00:00.000                             : :Chapter 1
    00:08:24.379                             : :Chapter 2
    00:13:17.922                             : :Chapter 3
    00:19:34.298                             : :Chapter 4
    00:26:43.936                             : :Chapter 5
    00:30:54.978                             : :Chapter 6
    00:36:01.451                             : :Chapter 7
    00:44:23.411                             : :Chapter 8
    00:49:44.273                             : :Chapter 9
    00:53:43.679                             : :Chapter 10
    01:00:07.771                             : :Chapter 11
    01:07:04.979                             : :Chapter 12
    01:12:47.822                             : :Chapter 13
    01:20:12.391                             : :Chapter 14
    01:24:46.707                             : :Chapter 15
    01:27:38.462                             : :Chapter 16
    01:30:30.884                             : :Chapter 17
    01:33:26.726                             : :Chapter 18
    01:38:09.592                             : :Chapter 19
    01:42:08.372                             : :Chapter 20








    ONLINE

    CZ dabing






    SK dabing









    pepa49, MAYKY78, PetrJaros, Bezo, Mirrec,

    + Pridaj vlastnu verziu tohto torrentu +


    Upozornenie:
    Ziadny zo zobrazených súborov sa nenachádza na tomto serveri. Server slúzi len k síreniu vlastnorucne vytvorených aplikácií, videí, hudby ai. Autori stránok nenesú ziadnu zodpovednost za zverejnené odkazy, komentáre a obsah súborov. Vsetky komentáre, odkazy, súbory ktoré by svojou povahou mohli byt v rozpore zo zákonmi sem vkladáte na vlastnú zodpovednost. Autori stránok si vyhradzujú právo cenzúry odkazov, komentárov príp. súborov, ktoré by svojou povahou mohli byt v rozpore zo zákonmi a dobrými mravmi. Dodrzujte pravidlá!





    0
    robert19791979
    Ratio 0.12

    Clen

    05/07/2022 08.45.53
    Hotel transylvania 4 po slovensky nema niekto nahodou? dik

    0
    robert19791979
    Ratio 0.12

    Clen

    04/07/2022 06.59.52
    Super! dakujem pekne!


    --------------
    >> 04/07/2022 16.36.21
    Koryto01: dobrá práce, mohu se zeptat na zdroj, u nás nevyšel na 4k uhd nosičích,,díky


    Back

    Na serveru se nenalézají zádne soubory. Za odkazy jsou výhradně zodpovědní uzivatelé a návstěvníci tohoto trackeru. Administrátor není zodpovědný za pridaný obsah ani za skody zpusobené uzivateli. Rozsirovat stránku nebo její obsah bez souhlasu ownera je zakázano. Nesmíte pouzívat tuto webovou stránku pro distribuovaní nebo download zádného materiálu pokud nemáte povolení od príslusného vlastníka práv. Uzivatelé jsou zodpovědní za dodrzování těchto pravidel a podmínek. Owner má právo kdykoliv změnit pravidla tohoto trackeru.

    [ Script trval: 0.025 sec. ] - [ GZIP: enabled ]
    Je zhruba 20:40
    sql

    TOPlist