Tvoj účet nieje VIP.
Preto sú tvoje funkcie a možnosti značne obmedzené.
Pre aktiváciu VIP klikni sem.

Zrozen k jizde / Born to Ride (1991)(CZ) = CSFD 68% | SkTorrent.eu

Cz-SkTorrent open Tracker, na volné zdielanie súborov. Pridajte sa k nasej komunite a získajte pristup k tisícom torrentov.

  • vysoká rýchlost
  • úplne zdarma
  • prevazne Slovenska a Ceska scena
  • ste tu s nami uz 5 rokov - Dakujeme
  • Vitaj Guest (Login) Ako stahovat
    torrenty?
    Torrenty:
    v1 textová
    v2 obrázková
    v3 online filmy
    Ako sa stat
    Uploaderom
    Online
    Filmy
    Forum
    Pravidlá
    BitTorrent
    klient
    Meno: Heslo:
    Zaregistrovat
    Po zaregistrovaní mozte volne stahovat
    Zabudol som heslo

    Torrent's details
    Zrozen k jizde / Born to Ride (1991)(CZ) = CSFD 68% Názov:Zrozen k jizde / Born to Ride (1991)(CZ) = CSFD 68% Hodnocení: Stiahnut
    Pozriet Online
    Kategória:Filmy CZ/SK dabing Velikost:970.1 MB BitTorrent klient
    Pridaný: Súbory:
    Skontrolován:2020-09-12 Peerov:20 (Seed: 20, Leech: 0)
    Zaner:Akcni Uploader:Uvidis, az ked budes
    VIP
    Kúp nám Pivo 1,10€

    Kúp nám Pivo
    Podporte nas na Facebooku !
    Pridaj do zalozky
    Pridaj do zalozky








    "Zrozen k jízdě"
    "Born to Ride"


    Jazyk | Cz 2.0
    Titulky | Ne
    Datum vydání | USA, 1991
    Délka | 90min
    Žánr | Akční











    Režie | Graham Baker
    Hudba | Shirley Walker
    Hrají | John Stamos, John Stockwell, Teri Polo, Sandy McPeak, Keith Cooke, Justin Lazard, Thom Mathews, Garrick Hagon, Salvator Xuereb, Slobodan Dimitrijevič, Ed Bishop, Bob Sweeney, Slavko Juraga, Lisa Orgolini, Kieron Jecchinis
    Producenti | Fred Weintraub, Sandra Weintraub
    Střih | Alan Balsam



    Grady Westfall (John Stamos) sa zrejme narodil na to, aby porušoval pravidlá. Jedno z mnohých porušení sa mu stane osudným a skončí vo väzení. Ako excelentný jazdec na motorke má však šancu dostať sa na slobodu aj inak, ako útekom. Medzičasom sa totiž plukovník Devers rozhodol premeniť jazdeckú jednotku americkej armády na motocyklovú. A Grady je ideálny kandidát na armádneho inštruktura. Zdá sa, že toto bude jediná cesta, ako sa dostať nma slobodu, ale ešte nie je všetkému koniec. Pred jazdcami stojí náročná supertajná operácia. V Španielsku generál Franco väzní amerického atómového vedca Tatea a jeho dcéru Claire. Úlohou jazdcov je ich vyslobodiť a priviesť domov...
















    Video: Česká televize
    Audio: VHS









    Format                         : Matroska
    Format version                 : Version 4
    File size                      : 970 MiB
    Duration                       : 1 h 26 min
    Overall bit rate               : 1 570 kb/s
    Movie name                     : Born.to.Ride.1991.480p.x264.ACC.CZ-KDC
    Encoded date                   : UTC 2020-09-12 20:10:47
    Writing application            : mkvmerge v23.0.0 ('The Bride Said No') 64-bit
    Writing library                : libebml v1.3.6 + libmatroska v1.4.9

    Video
    ID                             : 1
    Format                         : AVC
    Format/Info                    : Advanced Video Codec
    Format profile                 : Main@L3
    Format settings                : CABAC / 2 Ref Frames
    Format settings, CABAC         : Yes
    Format settings, Reference fra : 2 frames
    Codec ID                       : V_MPEG4/ISO/AVC
    Duration                       : 1 h 26 min
    Bit rate                       : 1 443 kb/s
    Width                          : 704 pixels
    Height                         : 576 pixels
    Display aspect ratio           : 4:3
    Frame rate mode                : Constant
    Frame rate                     : 25.000 FPS
    Standard                       : PAL
    Color space                    : YUV
    Chroma subsampling             : 4:2:0
    Bit depth                      : 8 bits
    Scan type                      : Progressive
    Bits/(Pixel*Frame)             : 0.142
    Stream size                    : 892 MiB (92%)
    Title                          : KFC
    Default                        : Yes
    Forced                         : No
    Color range                    : Limited

    Audio
    ID                             : 2
    Format                         : AAC LC
    Format/Info                    : Advanced Audio Codec Low Complexity
    Codec ID                       : A_AAC-2
    Duration                       : 1 h 26 min
    Bit rate                       : 124 kb/s
    Channel(s)                     : 2 channels
    Channel layout                 : L R
    Sampling rate                  : 48.0 kHz
    Frame rate                     : 46.875 FPS (1024 SPF)
    Compression mode               : Lossy
    Delay relative to video        : -40 ms
    Stream size                    : 76.6 MiB (8%)
    Title                          : Cz 2.0 - VHS
    Language                       : Czech
    Default                        : Yes
    Forced                         : No

    Menu
    00:00:00.000                   : en:Chapter 1
    00:10:00.000                   : en:Chapter 2
    00:20:00.000                   : en:Chapter 3
    00:30:00.000                   : en:Chapter 4
    00:40:00.000                   : en:Chapter 5
    00:50:00.000                   : en:Chapter 6
    01:00:00.000                   : en:Chapter 7
    01:10:00.000                   : en:Chapter 8
    01:20:00.000                   : en:Chapter 9













    bretapivo1, saabho, honzaullaga,

    + Pridaj vlastnu verziu tohto torrentu +


    Upozornenie:
    Ziadny zo zobrazených súborov sa nenachádza na tomto serveri. Server slúzi len k síreniu vlastnorucne vytvorených aplikácií, videí, hudby ai. Autori stránok nenesú ziadnu zodpovednost za zverejnené odkazy, komentáre a obsah súborov. Vsetky komentáre, odkazy, súbory ktoré by svojou povahou mohli byt v rozpore zo zákonmi sem vkladáte na vlastnú zodpovednost. Autori stránok si vyhradzujú právo cenzúry odkazov, komentárov príp. súborov, ktoré by svojou povahou mohli byt v rozpore zo zákonmi a dobrými mravmi. Dodrzujte pravidlá!


    No comments...


    Back

    Na serveru se nenalézají zádne soubory. Za odkazy jsou výhradně zodpovědní uzivatelé a návstěvníci tohoto trackeru. Administrátor není zodpovědný za pridaný obsah ani za skody zpusobené uzivateli. Rozsirovat stránku nebo její obsah bez souhlasu ownera je zakázano. Nesmíte pouzívat tuto webovou stránku pro distribuovaní nebo download zádného materiálu pokud nemáte povolení od príslusného vlastníka práv. Uzivatelé jsou zodpovědní za dodrzování těchto pravidel a podmínek. Owner má právo kdykoliv změnit pravidla tohoto trackeru.

    [ Script trval: 0.025 sec. ] - [ GZIP: enabled ]
    BtiTracker (1.4.8) by Btiteam
    Je zhruba 06:35

    TOPlist